Кукловод: Самый маленький рейх / Puppet Master: The Littlest Reich (2018) WEBRip 720p | L2

 
Автор Сообщение

BOSS ®

Пол:

Стаж: 4 года

Сообщений: 12092

Откуда: ODESSA



Награды: 22 (Подробнее)

Top Releaser 4 (Количество: 1) Mega Releaser 2 (Количество: 1) За внесенный вклад в развитие сайта (Количество: 1)
Торрент-статистика

Создавать темы 04-Окт-2018 17:24

[Цитировать]

Информация о фильме
Название: Кукловод: Самый маленький рейх
Оригинальное название: Puppet Master: The Littlest Reich
Год выхода: 2018
Жанр: Ужасы
Режиссер: Сонни Лагуна, Томмю Виклунд
В ролях: Майкл Паре, Томас Леннон, Шарлин Йи, Удо Кир, Барбара Крэмптон, Нельсон Франклин, Маттиас Хьюз, Дженни Пеллисер, Тина Паркер, Бетси Холт и другие
О фильме:
Молодой человек обнаруживает потрёпанную куклу в шкафу покойного брата. Он решает продать куклу на конвенте в Орегоне, где отмечают 30-летие знаменитых убийств Тулона. Но время аукциона неведомая злая сила оживляет всех выставленных на продажу кукол, и те немедленно устраивают кровавую баню.

Страна: Великобритания, США, Cinestate,Ghost Horse,Zero Trans Fat Productions
Продолжительность: 01:30:37
Перевод: Любительский (двухголосый закадровый) | HiWay Grope
Файл
Кодек: MPEG-4 AVC/x.264
Качество: WEBRip 720p
Видео: 1280x532, 25.000 fps, ~3981 kbps, 0.234 bit/pixel
Звук:
Аудио rus: AC3, 48 kHz, 6 ch, 384 Kbps
Субтитры: отсутствуют
Реклама: присутствует
Семпл

MediaInfo:

General
Unique ID : 176324399030264960658129209417620823635 (0x84A6D810814B0C91B2520B01EDF49E53)
Complete name : D:Puppet.Master.The.Littlest.Reich.2018.720p.WEBRip.HiWayGropePuppet.Master.The.Littlest.Reich.2018.720p.WEBRip.HiWayGrope.mkv
Format : Matroska
Format version : Version 2
File size : 2.82 GiB
Duration : 1 h 30 min
Overall bit rate : 4 454 kb/s
Encoded date : UTC 2018-10-03 21:20:27
Writing application : mkvmerge v3.3.0 ('Language') built on Mar 24 2010 14:59:24
Writing library : libebml v0.8.0 + libmatroska v0.9.0
Video
ID : 1
Format : AVC
Format/Info : Advanced Video Codec
Format profile : Main@L3.1
Format settings : CABAC / 3 Ref Frames
Format settings, CABAC : Yes
Format settings, RefFrames : 3 frames
Codec ID : V_MPEG4/ISO/AVC
Duration : 1 h 30 min
Bit rate : 3 981 kb/s
Width : 1 280 pixels
Height : 532 pixels
Display aspect ratio : 2.40:1
Frame rate mode : Constant
Frame rate : 25.000 FPS
Standard : PAL
Color space : YUV
Chroma subsampling : 4:2:0
Bit depth : 8 bits
Scan type : Progressive
Bits/(Pixel*Frame) : 0.234
Stream size : 2.52 GiB (89%)
Language : English
Default : Yes
Forced : No
Color range : Limited
Color primaries : BT.601 NTSC
Transfer characteristics : BT.601
Matrix coefficients : BT.601
Audio
ID : 2
Format : AC-3
Format/Info : Audio Coding 3
Codec ID : A_AC3
Duration : 1 h 30 min
Bit rate mode : Constant
Bit rate : 384 kb/s
Channel(s) : 6 channels
Channel positions : Front: L C R, Side: L R, LFE
Sampling rate : 48.0 kHz
Frame rate : 31.250 FPS (1536 SPF)
Bit depth : 16 bits
Compression mode : Lossy
Stream size : 249 MiB (9%)
Service kind : Complete Main
Default : Yes
Forced : No

Скриншоты

Релиз от: HiWay Grope
[Профиль] [ЛС]
Показать сообщения:    

Текущее время: Сегодня 07:53

Часовой пояс: GMT



Вы не можете начинать темы
Вы не можете отвечать на сообщения
Вы не можете редактировать свои сообщения
Вы не можете удалять свои сообщения
Вы не можете голосовать в опросах
Вы не можете прикреплять файлы к сообщениям
Вы не можете скачивать файлы