На пути к Грейс / Running for Grace (2018) WEB-DL 1080p от OlLanDGroup | HDRezka Studio

 
Author Message

Swager ®

Gender:

Longevity: 3 years 8 months

Posts: 2126



: 4 ()

Top Releaser 2 (1) За внесенный вклад в развитие сайта (1) Mega Seeder 1 (1)
Торрент-статистика

Post 03-Oct-2018 07:48

[Quote]

На пути к Грейс / Running for Grace
«A Magical Tale of Love, Friendship & Adventure»-

Год выпуска: 2018
Страна: США
Производство: Kona Snow Pictures, Public House Films
Жанр: Мелодрама, семейный
Режиссёр: Дэвид Л. Каннингэм
В ролях: Райан Поттер, Джеймс Кэвизел, Мэтт Диллон, Джульетт Миллс, Оливия Ричи, Ник Борэйни, Стелио Саванте, Пейтон Дилвег, Коул Такиу, Сара Наби Ким
Перевод: Профессиональный (многоголосый, закадровый) | [HDRezka Studio]
Субтитры: Английские (полные)
Реклама: Отсутствует
Описание: Док неофициально усыновляет сироту смешанной расы Джо, поскольку так называемые законы о расовой неприкосновенности не позволяют ему официально стать отцом мальчика. Джо бегает словно ветер и помогает приемному родителю разносить лекарства работникам кофейной плантации. Когда мальчик подрастает, он берет на себя дополнительные обязанности. Однажды, когда ему приходится заменять отсутствующего Дока, и он встречает дочь владельца плантации по имени Грейс, которая растягивает лодыжку в самый подходящий момент. Молодая запретная влюбленность расцветает яркими красками среди кофейных деревьев...

Качество: WEB-DL 1080p | iTunes Version | Running.for.Grace.2018.1080p.WEB-DL.DD5.1.H264-FGT
Продолжительность: 01:50:29
Формат: MKV
Видео кодек: MPEG-4 AVC
Аудио кодек: AC3
Видео: 1908x792 (2.40:1), 23,976 fps, x264 ~4 506 kbps avg, 0.124 bit/pixel
Аудио #1: 48 kHz, AC3 Dolby Digital, 2 (L,R) ch, ~192.00 kbps avg | RUS (HDRezka Studio)
Аудио #2: 48 kHz, AC3 Dolby Digital, 3/2 (L,C,R,l,r) + LFE ch, ~384.00 kbps avg | ENG
Дата премьеры (мир): 20 июля 2018
Дата премьеры (РФ):

Релиз от:

MediaInfo

Общее
Уникальный идентификатор : 225764387472277490584899374532379260653 (0xA9D8A3B116B994FBE198F462F1DFB6ED)
Полное имя : F:OlLanDGroupRunning.for.Grace.2018.WEB-DL(1080p).OlLanDGroup.mkv
Формат : Matroska
Версия формата : Version 4 / Version 2
Размер файла : 3,92 Гбайт
Продолжительность : 1 ч. 50 м.
Общий поток : 5084 Кбит/сек
Название фильма : Running.for.Grace.2018 #TorpedoUK#
Дата кодирования : UTC 2018-10-03 01:50:14
Программа кодирования : mkvmerge v25.0.0 ('Prog Noir') 64-bit
Библиотека кодирования : libebml v1.3.6 + libmatroska v1.4.9
Обложка : Yes
Attachments : small_cover.jpg / small_cover_land.jpg / cover.jpg / cover_land.jpg
Видео
Идентификатор : 1
Формат : AVC
Формат/Информация : Advanced Video Codec
Профиль формата : High@L4
Параметр CABAC формата : Да
Параметр ReFrames формата : 5 кадров
Идентификатор кодека : V_MPEG4/ISO/AVC
Продолжительность : 1 ч. 50 м.
Битрейт : 4506 Кбит/сек
Ширина : 1908 пикселей
Высота : 792 пикселя
Соотношение сторон : 2,40:1
Режим частоты кадров : Постоянный
Частота кадров : 23,976 кадра/сек
Цветовое пространство : YUV
Субдискретизация насыщенности : 4:2:0
Битовая глубина : 8 бит
Тип развёртки : Прогрессивная
Бит/(Пиксели*Кадры) : 0.124
Размер потока : 3,48 Гбайт (89%)
Заголовок : Running.for.Grace.2018.1080p.WEB-DL.DD5.1.H264-FGT
Язык : English
Default : Да
Forced : Нет
Цветовой диапазон : Limited
Основные цвета : BT.709
Характеристики трансфера : BT.709
Коэффициенты матрицы : BT.709
Аудио #1
Идентификатор : 2
Формат : AC-3
Формат/Информация : Audio Coding 3
Расширение режима : CM (complete main)
Параметр Endianness формата : Big
Идентификатор кодека : A_AC3
Продолжительность : 1 ч. 50 м.
Вид битрейта : Постоянный
Битрейт : 192 Кбит/сек
Каналы : 2 канала
Расположение каналов : Front: L R
Частота : 48,0 КГц
Частота кадров : 31,250 кадров/сек (1536 spf)
Битовая глубина : 16 бит
Метод сжатия : С потерями
Задержка видео : -42 мс.
Размер потока : 152 Мбайт (4%)
Заголовок : MVO [HDRezka Studio]
Язык : Russian
Default : Да
Forced : Нет
Аудио #2
Идентификатор : 3
Формат : AC-3
Формат/Информация : Audio Coding 3
Расширение режима : CM (complete main)
Параметр Endianness формата : Big
Идентификатор кодека : A_AC3
Продолжительность : 1 ч. 50 м.
Вид битрейта : Постоянный
Битрейт : 384 Кбит/сек
Каналы : 6 каналов
Расположение каналов : Front: L C R, Side: L R, LFE
Частота : 48,0 КГц
Частота кадров : 31,250 кадров/сек (1536 spf)
Битовая глубина : 16 бит
Метод сжатия : С потерями
Задержка видео : -42 мс.
Размер потока : 303 Мбайт (8%)
Заголовок : [Original]
Язык : English
Default : Нет
Forced : Нет
Текст
Идентификатор : 4
Формат : UTF-8
Идентификатор кодека : S_TEXT/UTF8
Идентификатор кодека/Информация : UTF-8 Plain Text
Продолжительность : 1 ч. 44 м.
Битрейт : 41 бит/сек
Count of elements : 1157
Размер потока : 32,1 Кбайт (0%)
Заголовок : Full
Язык : English
Default : Нет
Forced : Нет
Меню
00:00:00.000 : en:1
00:05:47.000 : en:2
00:13:40.000 : en:3
00:24:55.000 : en:4
00:34:31.000 : en:5
00:43:47.000 : en:6
00:52:04.000 : en:7
01:01:40.000 : en:8
01:12:54.000 : en:9
01:32:36.000 : en:10
01:46:48.000 : en:11

Скриншоты



[Profile] [PM]
Кто просматривает тему:

Display posts from previous:    

The time now is: Today 10:58

All times are GMT



You cannot post new topics in this forum
You cannot reply to topics in this forum
You cannot edit your posts in this forum
You cannot delete your posts in this forum
You cannot vote in polls in this forum
You cannot attach files in this forum
You cannot download files in this forum