Придержи тьму / Hold the Dark (2018) WEBRip 1080p | L1

 
Author Message

BOSS ®

Gender:

Longevity: 4 years 10 months

Posts: 14166

Location: ODESSA



: 22 ()

Mega Releaser 2 (1) Top Seeder 5 (1) Mega Seeder 4 (1)
Торрент-статистика

Post 01-Oct-2018 16:42

[Quote]

Информация о фильме
Название: Придержи тьму
Оригинальное название: Hold the Dark
Год выхода: 2018
Жанр: триллер, драма, детектив, криминал
Режиссер: Джереми Солнье
В ролях: Джеффри Райт, Беккам Кроуфорд, Райли Кио, Майкл Тэйлс, Исаак Берд, Джозеф Уайтберд, Зандус Сноу, Джулиан Шэмп, Александр Скарсгард, Конор Бору
О фильме:
Маленький городок на Аляске. Бесследно исчезает игравший на улице шестилетний мальчик. Поскольку в округе уже были случаи похищения детей волками, мать исчезнувшего Медора Слоун пишет письмо исследователю и специалисту по волкам Расселлу Кору с просьбой выследить и убить того волка, который забрал её сына. Женщина считает, что должна что-то предъявить мужу, когда тот вернётся с войны в Ираке. Приехав, Рассел слушает рассказы Медоры про тяжелое небо и тьму снаружи, а когда отправляется выслеживать волков, старая женщина говорит ему, что зло в другой стороне.

Страна: США
Студия: Addictive Pictures, Film Science, VisionChaos Productions
Продолжительность: 02:05:50
Перевод: Любительский одноголосый | Хихидок
Файл
Кодек: AVC
Качество: WEBRip 1080p | Hold.the.Dark.2018.1080p.NF.WEBRip.DDP5.1.x264-NTG
Видео: MPEG-4 AVC, 1920x1080, 2870 Kбит/с, 23.976 кадр/с
Звук: Небольшая реклама в титрах
Аудио #1: Русский ( АС3, 2ch, 256 Кбит/с, 48.0 KHz) Любительский (одноголосый, закадровый) Хихикающий доктор
Аудио #2: Английский ( АС3, 6ch, 448 Кбит/с, 48.0 KHz)
Субтитры: Русские, английские, французские, немецкие, итальянские, испанские

MediaInfo

Источник: Hold.the.Dark.2018.1080p.NF.WEBRip.DDP5.1.x264-NTG
General
Unique ID : 250992567950573285358721760974518717069 (0xBCD36905B73CA1D7B37BCA673DE58A8D)
Complete name : Hold.the.Dark.2018.NF.WEBRip.1080p.mkv
Format : Matroska
Format version : Version 4 / Version 2
File size : 3.11 GiB
Duration : 2h 5mn
Overall bit rate mode : Variable
Overall bit rate : 3 541 Kbps
Encoded date : UTC 2018-09-30 21:24:49
Writing application : mkvmerge v7.1.0 ('Good Love') 64bit built on Jul 27 2014 13:06:55
Writing library : libebml v1.3.0 + libmatroska v1.4.1
Video
ID : 1
Format : AVC
Format/Info : Advanced Video Codec
Format profile : Main@L4
Format settings, CABAC : Yes
Format settings, ReFrames : 3 frames
Codec ID : V_MPEG4/ISO/AVC
Duration : 2h 5mn
Bit rate mode : Variable
Bit rate : 2 870 Kbps
Maximum bit rate : 4 305 Kbps
Width : 1 920 pixels
Height : 1 080 pixels
Display aspect ratio : 16:9
Frame rate mode : Constant
Frame rate : 23.976 (24000/1001) fps
Color space : YUV
Chroma subsampling : 4:2:0
Bit depth : 8 bits
Scan type : Progressive
Bits/(Pixel*Frame) : 0.058
Stream size : 2.49 GiB (80%)
Writing library : x264 core 148 r2715 7e75228
Encoding settings : cabac=1 / ref=3 / deblock=1:0:0 / analyse=0x1:0x111 / me=umh / subme=10 / psy=1 / psy_rd=1.00:0.00 / mixed_ref=1 / me_range=24 / chroma_me=1 / trellis=2 / 8x8dct=0 / cqm=0 / deadzone=21,11 / fast_pskip=1 / chroma_qp_offset=-2 / threads=8 / lookahead_threads=1 / sliced_threads=0 / nr=0 / decimate=1 / interlaced=0 / bluray_compat=0 / stitchable=1 / constrained_intra=0 / bframes=2 / b_pyramid=0 / b_adapt=2 / b_bias=0 / direct=3 / weightb=1 / open_gop=0 / weightp=2 / keyint=48 / keyint_min=25 / scenecut=0 / intra_refresh=0 / rc_lookahead=48 / rc=2pass / mbtree=1 / bitrate=2870 / ratetol=1.0 / qcomp=0.50 / qpmin=6 / qpmax=51 / qpstep=4 / cplxblur=20.0 / qblur=0.5 / vbv_maxrate=4305 / vbv_bufsize=5740 / nal_hrd=vbr / filler=0 / ip_ratio=1.40 / aq=1:1.00
Language : English
Default : Yes
Forced : No
Audio #1
ID : 2
Format : AC-3
Format/Info : Audio Coding 3
Mode extension : CM (complete main)
Format settings, Endianness : Big
Codec ID : A_AC3
Duration : 2h 5mn
Bit rate mode : Constant
Bit rate : 256 Kbps
Channel(s) : 2 channels
Channel positions : Front: L R
Sampling rate : 48.0 KHz
Frame rate : 31.250 fps (1536 spf)
Compression mode : Lossy
Stream size : 230 MiB (7%)
Language : Russian
Default : Yes
Forced : No
Audio #2
ID : 3
Format : AC-3
Format/Info : Audio Coding 3
Mode extension : CM (complete main)
Format settings, Endianness : Big
Codec ID : A_AC3
Duration : 2h 5mn
Bit rate mode : Constant
Bit rate : 448 Kbps
Channel(s) : 6 channels
Channel positions : Front: L C R, Side: L R, LFE
Sampling rate : 48.0 KHz
Frame rate : 31.250 fps (1536 spf)
Compression mode : Lossy
Stream size : 403 MiB (13%)
Language : English
Default : No
Forced : No
Text #1
ID : 4
Format : UTF-8
Codec ID : S_TEXT/UTF8
Codec ID/Info : UTF-8 Plain Text
Duration : 1h 58mn
Bit rate : 33 bps
Count of elements : 792
Stream size : 29.3 KiB (0%)
Language : Russian
Default : No
Forced : No
Text #2
ID : 5
Format : UTF-8
Codec ID : S_TEXT/UTF8
Codec ID/Info : UTF-8 Plain Text
Duration : 1h 55mn
Bit rate : 22 bps
Count of elements : 776
Stream size : 19.2 KiB (0%)
Language : English
Default : No
Forced : No
Text #3
ID : 6
Format : UTF-8
Codec ID : S_TEXT/UTF8
Codec ID/Info : UTF-8 Plain Text
Duration : 1h 59mn
Bit rate : 27 bps
Count of elements : 960
Stream size : 23.7 KiB (0%)
Title : SDH
Language : English
Default : No
Forced : No
Text #4
ID : 7
Format : UTF-8
Codec ID : S_TEXT/UTF8
Codec ID/Info : UTF-8 Plain Text
Duration : 1h 58mn
Bit rate : 24 bps
Count of elements : 790
Stream size : 21.2 KiB (0%)
Language : German
Default : No
Forced : No
Text #5
ID : 8
Format : UTF-8
Codec ID : S_TEXT/UTF8
Codec ID/Info : UTF-8 Plain Text
Duration : 1h 58mn
Bit rate : 24 bps
Count of elements : 785
Stream size : 21.2 KiB (0%)
Language : French
Default : No
Forced : No
Text #6
ID : 9
Format : UTF-8
Codec ID : S_TEXT/UTF8
Codec ID/Info : UTF-8 Plain Text
Duration : 1h 58mn
Bit rate : 19 bps
Count of elements : 768
Stream size : 17.2 KiB (0%)
Language : Italian
Default : No
Forced : No
Text #7
ID : 10
Format : UTF-8
Codec ID : S_TEXT/UTF8
Codec ID/Info : UTF-8 Plain Text
Duration : 1h 58mn
Bit rate : 22 bps
Count of elements : 788
Stream size : 19.6 KiB (0%)
Title : European
Language : Spanish
Default : No
Forced : No

Скриншоты

[Profile] [PM]
Display posts from previous:    

The time now is: Today 12:45

All times are GMT



You cannot post new topics in this forum
You cannot reply to topics in this forum
You cannot edit your posts in this forum
You cannot delete your posts in this forum
You cannot vote in polls in this forum
You cannot attach files in this forum
You cannot download files in this forum