Безумие / Frenzy (2018) WEBRip | L2

 
Автор Сообщение

Swager ®

Пол:

Стаж: 3 года

Сообщений: 1846



Награды: 4 (Подробнее)

Top Releaser 2 (Количество: 1) Mega Seeder 2 (Количество: 1) За внесенный вклад в развитие сайта (Количество: 1)
Торрент-статистика

Создавать темы 01-Окт-2018 08:46

[Цитировать]

Информация о фильме
Название: Безумие
Оригинальное название: Frenzy
Год выхода: 2018
Жанр: Ужасы, фантастика, боевик, триллер, драма, приключения
Режиссер: Хосе Монтесинос
В ролях: Обри Рейнольдс, Джина Витори, Ланеет Тачел, Тейлор Йоргенсен, Майкл С. Нью, Папа Бустос, Расселл Джеффри Бэнкс и другие
О фильме:
Компания друзей запускает популярный туристический видеоблог, который помогает финансировать их приключения. Пейдж, лидер группы, зовёт свою младшую сестру Линдси нырять с аквалангом в изолированную бухту. Когда их самолет падает, две сестры должны использовать все свои силы, находчивость и мужество, чтобы выжить в стае больших белых акул.

Страна: США
Продолжительность: 01:25:24
Перевод: Любительский (двухголосый закадровый) | HiWay Grope
Файл
Кодек: XviD
Качество: WEBRip
Видео: 720x400, 23.976 fps, ~1698 kbps, 0.25 bit/pixel
Звук:
Аудио rus: AC3, 48 kHz, 6 ch, 384 Kbps
Субтитры: отсутствуют
Реклама: присутствует
Семпл

MediaInfo:

General
Complete name : D:Frenzy.2018.WEBRip.HiWayGropeFrenzy.2018.WEBRip.HiWayGrope.avi
Format : AVI
Format/Info : Audio Video Interleave
File size : 1.25 GiB
Duration : 1 h 25 min
Overall bit rate : 2 092 kb/s
Writing application : VirtualDubMod 1.5.10.3 (build 2550/release)
Writing library : VirtualDubMod build 2550/release
Video
ID : 0
Format : MPEG-4 Visual
Format profile : Simple@L5
Format settings : BVOP1
Format settings, BVOP : 1
Format settings, QPel : No
Format settings, GMC : No warppoints
Format settings, Matrix : Default (MPEG)
Codec ID : XVID
Codec ID/Hint : XviD
Duration : 1 h 25 min
Bit rate : 1 699 kb/s
Width : 720 pixels
Height : 400 pixels
Display aspect ratio : 16:9
Frame rate : 23.976 (24000/1001) FPS
Color space : YUV
Chroma subsampling : 4:2:0
Bit depth : 8 bits
Scan type : Progressive
Compression mode : Lossy
Bits/(Pixel*Frame) : 0.246
Stream size : 1.01 GiB (81%)
Writing library : XviD 67
Audio
ID : 1
Format : AC-3
Format/Info : Audio Coding 3
Codec ID : 2000
Duration : 1 h 25 min
Bit rate mode : Constant
Bit rate : 384 kb/s
Channel(s) : 6 channels
Channel positions : Front: L C R, Side: L R, LFE
Sampling rate : 48.0 kHz
Frame rate : 31.250 FPS (1536 SPF)
Bit depth : 16 bits
Compression mode : Lossy
Stream size : 235 MiB (18%)
Alignment : Split accross interleaves
Interleave, duration : 42 ms (1.00 video frame)
Interleave, preload duration : 500 ms
Service kind : Complete Main

Скриншоты

[Профиль] [ЛС]
Показать сообщения:    

Текущее время: Сегодня 11:44

Часовой пояс: GMT



Вы не можете начинать темы
Вы не можете отвечать на сообщения
Вы не можете редактировать свои сообщения
Вы не можете удалять свои сообщения
Вы не можете голосовать в опросах
Вы не можете прикреплять файлы к сообщениям
Вы не можете скачивать файлы