Безумие / Frenzy (2018) WEBRip 720p | L2

 
Author Message

Swager ®

Gender:

Longevity: 3 years 8 months

Posts: 2126



: 4 ()

Mega Seeder 1 (1) Mega Seeder 2 (1) За внесенный вклад в развитие сайта (1)
Торрент-статистика

Post 01-Oct-2018 08:43

[Quote]

Информация о фильме
Название: Безумие
Оригинальное название: Frenzy
Год выхода: 2018
Жанр: Ужасы, фантастика, боевик, триллер, драма, приключения
Режиссер: Хосе Монтесинос
В ролях: Обри Рейнольдс, Джина Витори, Ланеет Тачел, Тейлор Йоргенсен, Майкл С. Нью, Папа Бустос, Расселл Джеффри Бэнкс и другие
О фильме:
Компания друзей запускает популярный туристический видеоблог, который помогает финансировать их приключения. Пейдж, лидер группы, зовёт свою младшую сестру Линдси нырять с аквалангом в изолированную бухту. Когда их самолет падает, две сестры должны использовать все свои силы, находчивость и мужество, чтобы выжить в стае больших белых акул.

Страна: США
Продолжительность: 01:25:24
Перевод: Любительский (двухголосый закадровый) | HiWay Grope
Файл
Кодек: MPEG-4 AVC/x.264
Качество: WEBRip 720p
Видео: 1280x712, 23.976 fps, ~2998 kbps, 0.137 bit/pixel
Звук:
Аудио rus: AC3, 48 kHz, 6 ch, 384 Kbps
Субтитры: отсутствуют
Реклама: присутствует
Семпл

MediaInfo:

General
Unique ID : 125561303643152121390268461706949647608 (0x5E763A3A715346F5CFE9C6C5527F5CF8)
Complete name : D:Frenzy.2018.720p.WEBRip.HiWayGropeFrenzy.2018.720p.WEBRip.HiWayGrope.mkv
Format : Matroska
Format version : Version 4 / Version 2
File size : 2.02 GiB
Duration : 1 h 25 min
Overall bit rate : 3 383 kb/s
Encoded date : UTC 2018-10-01 06:31:29
Writing application : mkvmerge v27.0.0 ('Metropolis') 64-bit
Writing library : libebml v1.3.6 + libmatroska v1.4.9
Video
ID : 1
Format : AVC
Format/Info : Advanced Video Codec
Format profile : Main@L3.1
Format settings : CABAC / 4 Ref Frames
Format settings, CABAC : Yes
Format settings, RefFrames : 4 frames
Codec ID : V_MPEG4/ISO/AVC
Duration : 1 h 25 min
Bit rate : 2 998 kb/s
Width : 1 280 pixels
Height : 712 pixels
Display aspect ratio : 16:9
Frame rate mode : Constant
Frame rate : 23.976 (24000/1001) FPS
Standard : NTSC
Color space : YUV
Chroma subsampling : 4:2:0
Bit depth : 8 bits
Scan type : Progressive
Bits/(Pixel*Frame) : 0.137
Stream size : 1.79 GiB (89%)
Language : English
Default : Yes
Forced : No
Color range : Limited
Color primaries : BT.709
Transfer characteristics : BT.709
Matrix coefficients : BT.709
Audio
ID : 2
Format : AC-3
Format/Info : Audio Coding 3
Codec ID : A_AC3
Duration : 1 h 25 min
Bit rate mode : Constant
Bit rate : 384 kb/s
Channel(s) : 6 channels
Channel positions : Front: L C R, Side: L R, LFE
Sampling rate : 48.0 kHz
Frame rate : 31.250 FPS (1536 SPF)
Bit depth : 16 bits
Compression mode : Lossy
Stream size : 235 MiB (11%)
Language : Russian
Service kind : Complete Main
Default : Yes
Forced : No

Скриншоты

[Profile] [PM]
Display posts from previous:    

The time now is: Today 11:51

All times are GMT



You cannot post new topics in this forum
You cannot reply to topics in this forum
You cannot edit your posts in this forum
You cannot delete your posts in this forum
You cannot vote in polls in this forum
You cannot attach files in this forum
You cannot download files in this forum