От этого песок становится красным / It Stains the Sands Red (2016) BDRip 1080p | P, L1

 
Author Message

Swager ®

Gender:

Longevity: 3 years 8 months

Posts: 2126



: 4 ()

Top Releaser 2 (1) За внесенный вклад в развитие сайта (1) Mega Seeder 2 (1)
Торрент-статистика

Post 01-Oct-2018 08:38

[Quote]

Название: От этого песок становится красным
Оригинальное название: It Stains the Sands Red
Год выхода: 2016
Страна: США
Студия: Digital Interference Productions, Grasswood Media
Продолжительность: 01:32:24
Жанр: ужасы, триллер, драма
Режиссер: Колин Минихан
В ролях: Бриттани Аллен, Хуан Ридингер, Мервин Мондесер, Кристофер Хиггинс, Эндрю Сапэнз, Майкл Филиппович, Нико Дэвид, Дилан Плэйфейр, Стив Джадкинс, ...
Перевод:
- Профессиональный (многоголосый, закадровый) СВ Студия
- Любительский (одноголосый, закадровый) Важенин Андрей
О фильме: Молли со своим парнем пытается сбежать от зомби-апокалипсиса, где-то на краю пустыни их ждёт самолёт. Но вот незадача — машина ломается, а по дороге их догоняет одинокий, но очень упорный зомби…

Кодек: x264
Качество: BDRip 1080p
Видео: 1920x804, 12000 kbps, 23,976 fps
Аудио #1: AC-3, 6 ch, 640 kbps (Rus) - MVO СВ Студия
Аудио #2: AC-3, 2 ch, 384 kbps (Rus) - VO Важенин Андрей (BadBajo)
Аудио #3: DTS, 6 ch, 1509 kbps (Eng)
Субтитры: английские
Внимание! В фильме присутствует ненормативная лексика!

MediaInfo

x264 [info]: frame I:798 Avg QP:19.52 size:188212
x264 [info]: frame P:27597 Avg QP:21.91 size: 99311
x264 [info]: frame B:104547 Avg QP:24.22 size: 51816
x264 [info]: consecutive B-frames: 1.7% 2.5% 7.5% 16.8% 15.0% 40.0% 8.5% 3.3% 2.1% 1.1% 0.5% 0.7% 0.4%
Общее
Уникальный идентификатор : 244335826940592674856925108874101051445 (0xB7D15E59E47A02BCAF67399B22FAD035)
Полное имя : От этого песок становится красным (It Stains the Sands Red) 2016 BDRip 1080p.mkv
Формат : Matroska
Версия формата : Version 2
Размер файла : 9,37 Гбайт
Продолжительность : 1 ч. 32 м.
Общий поток : 14,5 Мбит/сек
Дата кодирования : UTC 2018-10-01 06:51:04
Программа кодирования : mkvmerge v4.0.0 ('The Stars were mine') сборка от Jun 6 2010 16:18:42
Библиотека кодирования : libebml v1.0.0 + libmatroska v1.0.0
Видео
Идентификатор : 1
Формат : AVC
Формат/Информация : Advanced Video Codec
Профиль формата : High@L4.1
Параметр CABAC формата : Да
Параметр ReFrames формата : 5 кадров
Идентификатор кодека : V_MPEG4/ISO/AVC
Продолжительность : 1 ч. 32 м.
Битрейт : 12,0 Мбит/сек
Ширина : 1920 пикселей
Высота : 804 пикселя
Соотношение сторон : 2,40:1
Режим частоты кадров : Постоянный
Частота кадров : 23,976 (24000/1001) кадра/сек
Цветовое пространство : YUV
Субдискретизация насыщенности : 4:2:0
Битовая глубина : 8 бит
Тип развёртки : Прогрессивная
Бит/(Пиксели*Кадры) : 0.324
Размер потока : 7,55 Гбайт (81%)
Библиотека кодирования : x264 core 146 r2538 121396c
Настройки программы : cabac=1 / ref=5 / deblock=1:-2:-2 / analyse=0x3:0x133 / me=umh / subme=11 / psy=1 / psy_rd=1.00:0.00 / mixed_ref=1 / me_range=32 / chroma_me=1 / trellis=2 / 8x8dct=1 / cqm=0 / deadzone=21,11 / fast_pskip=0 / chroma_qp_offset=-2 / threads=12 / lookahead_threads=2 / sliced_threads=0 / nr=0 / decimate=0 / interlaced=0 / bluray_compat=0 / constrained_intra=0 / bframes=12 / b_pyramid=2 / b_adapt=2 / b_bias=0 / direct=3 / weightb=1 / open_gop=0 / weightp=2 / keyint=240 / keyint_min=23 / scenecut=40 / intra_refresh=0 / rc=2pass / mbtree=0 / bitrate=12000 / ratetol=1.0 / qcomp=0.60 / qpmin=0 / qpmax=69 / qpstep=4 / cplxblur=20.0 / qblur=0.5 / ip_ratio=1.40 / pb_ratio=1.30 / aq=3:0.80
Язык : English
Default : Нет
Forced : Нет
Аудио #1
Идентификатор : 2
Формат : AC-3
Формат/Информация : Audio Coding 3
Расширение режима : CM (complete main)
Параметр Endianness формата : Big
Идентификатор кодека : A_AC3
Продолжительность : 1 ч. 32 м.
Вид битрейта : Постоянный
Битрейт : 640 Кбит/сек
Каналы : 6 каналов
Расположение каналов : Front: L C R, Side: L R, LFE
Частота : 48,0 КГц
Частота кадров : 31,250 кадров/сек (1536 spf)
Метод сжатия : С потерями
Размер потока : 423 Мбайт (4%)
Заголовок : DVO СВ Студия
Язык : Russian
Default : Нет
Forced : Нет
Аудио #2
Идентификатор : 3
Формат : AC-3
Формат/Информация : Audio Coding 3
Расширение режима : CM (complete main)
Параметр Endianness формата : Big
Идентификатор кодека : A_AC3
Продолжительность : 1 ч. 32 м.
Вид битрейта : Постоянный
Битрейт : 384 Кбит/сек
Каналы : 2 канала
Расположение каналов : Front: L R
Частота : 48,0 КГц
Частота кадров : 31,250 кадров/сек (1536 spf)
Метод сжатия : С потерями
Размер потока : 254 Мбайт (3%)
Заголовок : VO Важенин Андрей (BadBajo)
Язык : Russian
Default : Нет
Forced : Нет
Аудио #3
Идентификатор : 4
Формат : DTS
Формат/Информация : Digital Theater Systems
Режим : 16
Параметр Endianness формата : Big
Идентификатор кодека : A_DTS
Продолжительность : 1 ч. 32 м.
Вид битрейта : Постоянный
Битрейт : 1509 Кбит/сек
Каналы : 6 каналов
Расположение каналов : Front: L C R, Side: L R, LFE
Частота : 48,0 КГц
Частота кадров : 93,750 кадра/сек (512 spf)
Битовая глубина : 16 бит
Метод сжатия : С потерями
Размер потока : 997 Мбайт (10%)
Язык : English
Default : Нет
Forced : Нет
Текст #1
Идентификатор : 5
Формат : UTF-8
Идентификатор кодека : S_TEXT/UTF8
Идентификатор кодека/Информация : UTF-8 Plain Text
Язык : English
Default : Нет
Forced : Нет
Текст #2
Идентификатор : 6
Формат : UTF-8
Идентификатор кодека : S_TEXT/UTF8
Идентификатор кодека/Информация : UTF-8 Plain Text
Заголовок : SDH
Язык : English
Default : Нет
Forced : Нет
Меню
00:00:00.000 : en:Chapter 01
00:04:15.755 : en:Chapter 02
00:06:59.210 : en:Chapter 03
00:11:41.117 : en:Chapter 04
00:16:08.300 : en:Chapter 05
00:21:53.312 : en:Chapter 06
00:25:04.252 : en:Chapter 07
00:29:24.304 : en:Chapter 08
00:34:11.799 : en:Chapter 09
00:39:21.442 : en:Chapter 10
00:43:41.535 : en:Chapter 11
00:48:56.767 : en:Chapter 12
00:53:15.609 : en:Chapter 13
00:56:21.127 : en:Chapter 14
00:58:51.986 : en:Chapter 15
01:02:45.094 : en:Chapter 16
01:05:39.518 : en:Chapter 17
01:08:31.941 : en:Chapter 18
01:12:09.158 : en:Chapter 19
01:15:58.470 : en:Chapter 20
01:20:03.548 : en:Chapter 21
01:22:57.305 : en:Chapter 22
01:28:40.189 : en:Chapter 23

Скриншоты


[Profile] [PM]
Кто просматривает тему:

Display posts from previous:    

The time now is: Today 11:56

All times are GMT



You cannot post new topics in this forum
You cannot reply to topics in this forum
You cannot edit your posts in this forum
You cannot delete your posts in this forum
You cannot vote in polls in this forum
You cannot attach files in this forum
You cannot download files in this forum