Лимбо / Limbo (2014) HDRip 1080p | GreenРай Studio

 
Автор Сообщение

BOSS ®

Пол:

Стаж: 4 года 2 месяца

Сообщений: 12650

Откуда: ODESSA



Награды: 22 (Подробнее)

Top Keeper 4 (Количество: 1) Top Releaser 2 (Количество: 1) Top Releaser 4 (Количество: 1)
Торрент-статистика

Создавать темы 29-Сен-2018 20:13

[Цитировать]

Информация о фильме
Название: Лимбо
Оригинальное название: Limbo
Год выпуска: 2014
Жанр: Ужасы
Страна: Аргентина, Noel Films
Режиссер: Иван Ноэль
В ролях: Анна-Мария Джунта, Тото Муньос, Сабрина Рамос, Лауро Верон, Ивансер Целес, Романо Робауди, Макси Лепоре, Хена Фореси
О фильме: «Лимбо» - уединенная колония, в которой живут дети-вампиры в возрасте от 4 до 120 лет, ставшие жертвами бессовестных взрослых вампиров. О них заботится глубоко религиозная пожилая медсестра, которая всю свою жизнь посвятила поиску «потерянных душ», чтобы вырастить их в своей колонии для воплощения божественной воли по созданию новой расы людей путем «естественного клонирования» (которое подразумевает, что люди превратятся в вампиров после того, как будут укушены ее подопечными). Чтобы помочь в осуществлении этих планов и защитить детей от «людей в черном», возглавляемых сыном писателя Брэма Стокера, которому противостоит юный внук графа Дракулы, она приглашает в колонию известную журналистку Алисию Делаторре.

Файл
Качество: HDRip 1080p
Видео данные: MKV, 1920x1080 (16:9), 23.976 fps, 8451 Кбит/с
Аудио данные: AAC, 2 ch, 192 Кбит/с
Перевод: Любительский многоголосый (GreenРай Studio)
Продолжительность: 01:41:00

Медиаинфо

General
Unique ID : 274020090950546182400224178060341381132 (0xCE26598FEF95258B698F693CB915880C)
Complete name : D:ГРИНРАЙLimbo.2014.P.BDRip.1080p.mkv
Format : Matroska
Format version : Version 4 / Version 2
File size : 6.10 GiB
Duration : 1 h 41 min
Overall bit rate : 8 643 kb/s
Encoded date : UTC 2018-09-27 01:23:22
Writing application : mkvmerge v25.0.0 ('Prog Noir') 64-bit
Writing library : libebml v1.3.6 + libmatroska v1.4.9
Video
ID : 1
Format : AVC
Format/Info : Advanced Video Codec
Format profile : High@L4.1
Format settings : CABAC / 1 Ref Frames
Format settings, CABAC : Yes
Format settings, RefFrames : 1 frame
Format settings, GOP : M=1, N=30
Codec ID : V_MPEG4/ISO/AVC
Duration : 1 h 41 min
Bit rate : 8 451 kb/s
Width : 1 920 pixels
Height : 1 080 pixels
Display aspect ratio : 16:9
Frame rate mode : Constant
Frame rate : 23.976 (24000/1001) FPS
Color space : YUV
Chroma subsampling : 4:2:0
Bit depth : 8 bits
Scan type : Progressive
Bits/(Pixel*Frame) : 0.170
Stream size : 5.96 GiB (98%)
Language : English
Default : Yes
Forced : No
Audio
ID : 2
Format : AAC
Format/Info : Advanced Audio Codec
Format profile : LC
Codec ID : A_AAC-2
Duration : 1 h 41 min
Bit rate : 192 kb/s
Channel(s) : 2 channels
Channel positions : Front: L R
Sampling rate : 48.0 kHz
Frame rate : 46.875 FPS (1024 SPF)
Compression mode : Lossy
Stream size : 137 MiB (2%)
Language : English
Default : Yes
Forced : No
Внимание, имеется видео и аудио реклама от спонсора показа

Скриншоты

Релиз от:
[Профиль] [ЛС]
Показать сообщения:    

Текущее время: Сегодня 18:01

Часовой пояс: GMT



Вы не можете начинать темы
Вы не можете отвечать на сообщения
Вы не можете редактировать свои сообщения
Вы не можете удалять свои сообщения
Вы не можете голосовать в опросах
Вы не можете прикреплять файлы к сообщениям
Вы не можете скачивать файлы