Мир Юрского периода 2 / Jurassic World: Fallen Kingdom (2018) BDRip | Лицензия

 
Author Message

BOSS ®

Gender:

Longevity: 4 years 8 months

Posts: 14112

Location: ODESSA



: 22 ()

Top Keeper 1 (1) Mega Seeder 3 (1) Top Keeper 3 (1)
Торрент-статистика

Post 29-Sep-2018 20:06

[Quote]

Информация о фильме
Название: Мир Юрского периода 2
Оригинальное название: Jurassic World: Fallen Kingdom
Год выхода: 2018
Жанр: Фантастика, боевик, приключения
Режиссер: Хуан Антонио Байона
В ролях: Брайс Даллас Ховард, Крис Прэтт, Джефф Голдблюм, Тед Левайн, Джеймс Кромуэлл, Тоби Джонс, Б. Д. Вонг, Рейф Сполл, Даниэлла Пинеда, Джеральдин Чаплин
О фильме:
На острове Исла-Нублар, где не так давно располагался парк развлечений с динозаврами, правит бал дикая природа. Но без людей все далеко не так спокойно, как могло бы показаться. Основатели парка приняли решение построить его, несмотря на активный вулкан, расположенный в сердце острова. Вулкан пробудился и рискует потопить остров в лаве. Управляющая парка Клэр Дэринг уговаривает дрессировщика Оуэна Грэди вернуться в бывший парк и спасти динозавров от неминуемой гибели.

Страна: США, Испания
Студия: Universal Pictures
Продолжительность: 02:08:17
Перевод: Дублированный | Лицензия
Субтитры: Русские форсированные (вшитые)
Файл
Формат: AVI
Качество: BDRip | BDRemux 1080p |
Видео: XviD, 720x304 (2.35:1), 23.976 fps, 1424 Kbps (0.271 bit/pixel)
Звук: 48.0 kHz, AC3 2/0 ch, 192 kbps

MediaInfo

General
Complete name : D:RazdachiMir.Urskogo.Perioda.II.2018.XviD.BDRip.GeneralFilm.avi
Format : AVI
Format/Info : Audio Video Interleave
File size : 1.46 GiB
Duration : 2 h 8 min
Overall bit rate : 1 625 kb/s
Writing application : VirtualDubMod 1.5.10.3 | www.virtualdub-fr.org || (build 2550/release)
Writing library : VirtualDubMod build 2550/release
Video
ID : 0
Format : MPEG-4 Visual
Format profile : Advanced Simple@L5
Format settings, BVOP : 1
Format settings, QPel : No
Format settings, GMC : No warppoints
Format settings, Matrix : Custom
Codec ID : XVID
Codec ID/Hint : XviD
Duration : 2 h 8 min
Bit rate : 1 424 kb/s
Width : 720 pixels
Height : 304 pixels
Display aspect ratio : 2.35:1
Frame rate : 23.976 (24000/1001) FPS
Color space : YUV
Chroma subsampling : 4:2:0
Bit depth : 8 bits
Scan type : Progressive
Compression mode : Lossy
Bits/(Pixel*Frame) : 0.271
Stream size : 1.28 GiB (88%)
Writing library : XviD 73
Audio
ID : 1
Format : AC-3
Format/Info : Audio Coding 3
Format settings, Endianness : Big
Codec ID : 2000
Duration : 2 h 8 min
Bit rate mode : Constant
Bit rate : 192 kb/s
Channel(s) : 2 channels
Channel positions : Front: L R
Sampling rate : 48.0 kHz
Frame rate : 31.250 FPS (1536 SPF)
Bit depth : 16 bits
Compression mode : Lossy
Stream size : 176 MiB (12%)
Alignment : Split accross interleaves
Interleave, duration : 42 ms (1.00 video frame)
Interleave, preload duratio : 500 ms
Service kind : Complete Main

Скриншоты

[Profile] [PM]
Кто просматривает тему:

Display posts from previous:    

The time now is: Today 11:11

All times are GMT



You cannot post new topics in this forum
You cannot reply to topics in this forum
You cannot edit your posts in this forum
You cannot delete your posts in this forum
You cannot vote in polls in this forum
You cannot attach files in this forum
You cannot download files in this forum