Зимний Хребет / Winter Ridge (2018) WEBRip 720p | L2

 
Author Message

BOSS ®

Gender:

Longevity: 4 years 8 months

Posts: 14112

Location: ODESSA



: 22 ()

Top Seeder 2 (1) Top Releaser 3 (1) Top Seeder 5 (1)
Торрент-статистика

Post 29-Sep-2018 10:36

[Quote]

Информация о фильме
Название: Зимний Хребет
Оригинальное название: Winter Ridge
Год выхода: 2018
Жанр: Триллер
Режиссер: Дом Ленуар
В ролях: Мэтт Хукингс, Олуэн Катрин Келли, Ханна Уэддингхэм, Майкл МакКелл, Джастин МакДональд, Алан Форд, Иэн Пири, Ноэлин Комиски, Клаудиа Арчер, Элла-роуд и другие
О фильме:
Молодой детектив тяжело переживает жуткую аварию, которая оставила его жену в коме. Но семь месяцев спустя он снова погружается в работу, чтобы поймать серийного убийцу, жертвами которого становятся пожилые люди.

Страна: Великобритания, Camelot Films,Chris.Hardman Pictures,Nice One Film
Продолжительность: 01:27:14
Перевод: Любительский (двухголосый закадровый) | HiWay Grope
Файл
Кодек: MPEG-4 AVC/x.264
Качество: WEBRip 720p
Видео: 1280x532, 24.000 fps, ~2904 kbps, 0.178 bit/pixel
Звук:
Аудио rus: AC3, 48 kHz, 6 ch, 384 Kbps
Субтитры: отсутствуют
Реклама: присутствует
Семпл

MediaInfo:

General
Unique ID : 45830351608576872714708377973223410663 (0x227A9ACA812F413B378A20CDA2994BE7)
Complete name : D:Winter.Ridge.2018.720p.WEBRip.HiWayGropeWinter.Ridge.2018.720p.WEBRip.HiWayGrope.mkv
Format : Matroska
Format version : Version 4 / Version 2
File size : 2.00 GiB
Duration : 1 h 27 min
Overall bit rate : 3 290 kb/s
Encoded date : UTC 2018-09-29 06:27:02
Writing application : mkvmerge v27.0.0 ('Metropolis') 64-bit
Writing library : libebml v1.3.6 + libmatroska v1.4.9
Video
ID : 1
Format : AVC
Format/Info : Advanced Video Codec
Format profile : Main@L3.1
Format settings : CABAC / 4 Ref Frames
Format settings, CABAC : Yes
Format settings, RefFrames : 4 frames
Codec ID : V_MPEG4/ISO/AVC
Duration : 1 h 27 min
Bit rate : 2 904 kb/s
Width : 1 280 pixels
Height : 532 pixels
Display aspect ratio : 2.40:1
Frame rate mode : Constant
Frame rate : 24.000 FPS
Color space : YUV
Chroma subsampling : 4:2:0
Bit depth : 8 bits
Scan type : Progressive
Bits/(Pixel*Frame) : 0.178
Stream size : 1.77 GiB (88%)
Language : English
Default : Yes
Forced : No
Color range : Limited
Color primaries : BT.601 NTSC
Transfer characteristics : BT.601
Matrix coefficients : BT.601
Audio
ID : 2
Format : AC-3
Format/Info : Audio Coding 3
Codec ID : A_AC3
Duration : 1 h 27 min
Bit rate mode : Constant
Bit rate : 384 kb/s
Channel(s) : 6 channels
Channel positions : Front: L C R, Side: L R, LFE
Sampling rate : 48.0 kHz
Frame rate : 31.250 FPS (1536 SPF)
Bit depth : 16 bits
Compression mode : Lossy
Stream size : 240 MiB (12%)
Language : English
Service kind : Complete Main
Default : Yes
Forced : No

Скриншоты

Релиз от: HiWay Grope
[Profile] [PM]
Display posts from previous:    

The time now is: Today 10:58

All times are GMT



You cannot post new topics in this forum
You cannot reply to topics in this forum
You cannot edit your posts in this forum
You cannot delete your posts in this forum
You cannot vote in polls in this forum
You cannot attach files in this forum
You cannot download files in this forum