Зимний Хребет / Winter Ridge (2018) WEBRip | L2

 
Author Message

BOSS ®

Gender:

Longevity: 4 years 8 months

Posts: 14112

Location: ODESSA



: 22 ()

Top Seeder 3 (1) Top Releaser 2 (1) Mega Releaser 4 (1)
Торрент-статистика

Post 29-Sep-2018 10:35

[Quote]

Информация о фильме
Название: Зимний Хребет
Оригинальное название: Winter Ridge
Год выхода: 2018
Жанр: Триллер
Режиссер: Дом Ленуар
В ролях: Мэтт Хукингс, Олуэн Катрин Келли, Ханна Уэддингхэм, Майкл МакКелл, Джастин МакДональд, Алан Форд, Иэн Пири, Ноэлин Комиски, Клаудиа Арчер, Элла-роуд и другие
О фильме:
Молодой детектив тяжело переживает жуткую аварию, которая оставила его жену в коме. Но семь месяцев спустя он снова погружается в работу, чтобы поймать серийного убийцу, жертвами которого становятся пожилые люди.

Страна: Великобритания, Camelot Films,Chris.Hardman Pictures,Nice One Film
Продолжительность: 01:27:14
Перевод: Любительский (двухголосый закадровый) | HiWay Grope
Файл
Кодек: XviD
Качество: WEBRip
Видео: 720x304, 24 fps, ~1548 kbps, 0.29 bit/pixel
Звук:
Аудио rus: AC3, 48 kHz, 6 ch, 384 Kbps
Субтитры: отсутствуют
Реклама: присутствует
Семпл

MediaInfo:

General
Complete name : D:Winter.Ridge.2018.WEBRip.HiWayGropeWinter.Ridge.2018.WEBRip.HiWayGrope.avi
Format : AVI
Format/Info : Audio Video Interleave
File size : 1.18 GiB
Duration : 1 h 27 min
Overall bit rate : 1 942 kb/s
Writing application : VirtualDubMod 1.5.10.3 (build 2550/release)
Writing library : VirtualDubMod build 2550/release
Video
ID : 0
Format : MPEG-4 Visual
Format profile : Simple@L5
Format settings : BVOP1
Format settings, BVOP : 1
Format settings, QPel : No
Format settings, GMC : No warppoints
Format settings, Matrix : Default (MPEG)
Codec ID : XVID
Codec ID/Hint : XviD
Duration : 1 h 27 min
Bit rate : 1 548 kb/s
Width : 720 pixels
Height : 304 pixels
Display aspect ratio : 2.40:1
Frame rate : 24.000 FPS
Color space : YUV
Chroma subsampling : 4:2:0
Bit depth : 8 bits
Scan type : Progressive
Compression mode : Lossy
Bits/(Pixel*Frame) : 0.295
Stream size : 966 MiB (80%)
Writing library : XviD 67
Audio
ID : 1
Format : AC-3
Format/Info : Audio Coding 3
Codec ID : 2000
Duration : 1 h 27 min
Bit rate mode : Constant
Bit rate : 384 kb/s
Channel(s) : 6 channels
Channel positions : Front: L C R, Side: L R, LFE
Sampling rate : 48.0 kHz
Frame rate : 31.250 FPS (1536 SPF)
Bit depth : 16 bits
Compression mode : Lossy
Stream size : 240 MiB (20%)
Alignment : Split accross interleaves
Interleave, duration : 42 ms (1.00 video frame)
Interleave, preload duration : 500 ms
Service kind : Complete Main

Скриншоты

Релиз от: HiWay Grope
[Profile] [PM]
Display posts from previous:    

The time now is: Today 11:48

All times are GMT



You cannot post new topics in this forum
You cannot reply to topics in this forum
You cannot edit your posts in this forum
You cannot delete your posts in this forum
You cannot vote in polls in this forum
You cannot attach files in this forum
You cannot download files in this forum