Итси-Битси / Steppeulven (2014) WEBRip 720p | GreenРай Studio

 
Автор Сообщение

BOSS ®

Пол:

Стаж: 4 года

Сообщений: 12134

Откуда: ODESSA



Награды: 22 (Подробнее)

Top Keeper 1 (Количество: 1) Top Keeper 2 (Количество: 1) Mega Seeder 3 (Количество: 1)
Торрент-статистика

Создавать темы 28-Сен-2018 18:45

[Цитировать]

Информация о фильме
Название: Итси-Битси
Оригинальное название: Steppeulven
Год выпуска: 2014
Жанр: Драма
Страна: Дания, Beofilm Post Production, Nimbus Film ApS
Режиссер: Оле Кристиан Мадсен
В ролях: Ола Рапас, Туре Линдхардт, Натали Мандуно, Юлия Рагнарссон, Анетт Стёвельбек, Каспер Лайснер, Каспар Филлипсон, Мартин Грайс, Питер Халд
О фильме: В 1962-м Эйк мечтал изменить мир, борясь за него: он расклеивал на старых копенгагенских стенах антивоенные плакаты, за что был свинчен нарядом полиции и оказался в тюремной камере. Там, на грязном полу, избитый и в крови, он встретил Ибен - женщину своей жизни. Вместе они преодолели тысячи километров, прошли через отчаянные наркотические опыты, проверили на прочность свою способность признавать свободу партнера и прожили годы, не стесняя себя сексуальными обязательствами: в своем так и неоконченном романе Эйк описал много «мужских битв» с другими привязанностями Ибен. Самое же удивительное в этой истории любви - её абсолютная подлинность: Эйк и Ибен - реальные люди, они жили здесь, они жили среди нас...

Файл
Качество: WEBRip 720p
Видео данные: MKV, 1280x530 (2.40:1), 23.976 fps, 3413 Кбит/с
Аудио данные: AC3, 2 ch, 192 Кбит/с
Перевод: Любительский многоголосый (GreenРай Studio)
Продолжительность: 01:47:24

Медиаинфо

General
Unique ID : 99578959444719259542532210582919014078 (0x4AEA35C16A9BFA498675B394852F66BE)
Complete name : D:ГРИНРАЙSteppeulven.2014.P.WEB-DL.720p.mkv
Format : Matroska
Format version : Version 4 / Version 2
File size : 2.70 GiB
Duration : 1 h 47 min
Overall bit rate : 3 605 kb/s
Encoded date : UTC 2018-09-27 03:09:12
Writing application : mkvmerge v25.0.0 ('Prog Noir') 64-bit
Writing library : libebml v1.3.6 + libmatroska v1.4.9
Video
ID : 1
Format : AVC
Format/Info : Advanced Video Codec
Format profile : High@L3.1
Format settings : CABAC / 1 Ref Frames
Format settings, CABAC : Yes
Format settings, RefFrames : 1 frame
Format settings, GOP : M=1, N=30
Codec ID : V_MPEG4/ISO/AVC
Duration : 1 h 47 min
Bit rate : 3 413 kb/s
Width : 1 280 pixels
Height : 530 pixels
Display aspect ratio : 2.40:1
Frame rate mode : Constant
Frame rate : 23.976 (24000/1001) FPS
Color space : YUV
Chroma subsampling : 4:2:0
Bit depth : 8 bits
Scan type : Progressive
Bits/(Pixel*Frame) : 0.210
Stream size : 2.56 GiB (95%)
Language : English
Default : Yes
Forced : No
Audio
ID : 2
Format : AAC
Format/Info : Advanced Audio Codec
Format profile : LC
Codec ID : A_AAC-2
Duration : 1 h 47 min
Bit rate : 192 kb/s
Channel(s) : 2 channels
Channel positions : Front: L R
Sampling rate : 48.0 kHz
Frame rate : 46.875 FPS (1024 SPF)
Compression mode : Lossy
Stream size : 146 MiB (5%)
Language : English
Default : Yes
Forced : No
Внимание, имеется видео и аудио реклама от спонсора показа

Скриншоты

Релиз от:
[Профиль] [ЛС]
Кто просматривает тему:

Показать сообщения:    

Текущее время: Сегодня 18:32

Часовой пояс: GMT



Вы не можете начинать темы
Вы не можете отвечать на сообщения
Вы не можете редактировать свои сообщения
Вы не можете удалять свои сообщения
Вы не можете голосовать в опросах
Вы не можете прикреплять файлы к сообщениям
Вы не можете скачивать файлы