Последняя минута / Äkkilähtö (2016) BDRip 720p | A

 
Author Message

BOSS ®

Gender:

Longevity: 4 years 8 months

Posts: 14112

Location: ODESSA



: 22 ()

Mega Releaser 2 (1) Top Releaser 3 (1) Mega Releaser 4 (1)
Торрент-статистика

Post 28-Sep-2018 18:44

[Quote]

Информация о фильме
Название: Последняя минута
Оригинальное название: Äkkilähtö
Год выхода: 2016
Жанр: комедия, драма, мелодрама
Режиссер: Тийна Люми
В ролях: Лотта Кайхю, Веера В. Вило, Юсси Ватанен, Иина Куустонен, Рупи Олениус, Вилле Тиихонен, Антти Холма, Эмилия Синисало, Мария Пакален, Джарно Пимпери
Описание: Катри собирается в отпуск с подружками, но жених неожиданно делает ей предложение. Женское счастье так близко! Но придя в гости к жениху, она обнаруживает там каких-то посторонних людей, а сам жених на её глазах увозит свою беременную любовницу в роддом, оставив в квартире сумку с кучей евро…

Страна: Финляндия
Продолжительность: 01:38:41
Перевод: Авторский (одноголосый закадровый) Антон Карповский (в переводе присутствует ненормативная лексика)
Субтитры: английские
Оригинальная аудиодорожка: финский
Файл
Качество: BDRip 720p
Видео: MPEG-4, 1280x536 (2,40:1), 6335 kbps, 23.976 fps
Аудио 1: Русский DTS 5.1 / 48 kHz / 768 kbps / 24-bit
Аудио 2: Финский DTS 5.1 / 48 kHz / 768 kbps / 24-bit

Скриншоты

MediaInfo

Общее
Уникальный идентификатор : 233430191836821456692467628730201077916 (0xAF9D05070350BBA0821AEF0BFAB6F89C)
Полное имя : Akkilahto.2016.BDRip.720p-ylnian.mkv
Формат : Matroska
Версия формата : Version 4 / Version 2
Размер файла : 5,44 Гбайт
Продолжительность : 1 ч. 39 м.
Общий поток : 7817 Кбит/сек
Название фильма : Akkilahto.2016.BDRip.720p-ylnian
Дата кодирования : UTC 2016-09-18 11:38:54
Программа кодирования : mkvmerge v9.3.1 ('Mask Machine') 64bit
Библиотека кодирования : libebml v1.3.4 + libmatroska v1.4.5
Видео
Идентификатор : 1
Формат : AVC
Формат/Информация : Advanced Video Codec
Профиль формата : High@L4.1
Параметр CABAC формата : Да
Параметр ReFrames формата : 8 кадров
Идентификатор кодека : V_MPEG4/ISO/AVC
Продолжительность : 1 ч. 38 м.
Битрейт : 6335 Кбит/сек
Ширина : 1280 пикселей
Высота : 536 пикселей
Соотношение сторон : 2,40:1
Режим частоты кадров : Постоянный
Частота кадров : 23,976 (24000/1001) кадра/сек
Цветовое пространство : YUV
Субдискретизация насыщенности : 4:2:0
Битовая глубина : 8 бит
Тип развёртки : Прогрессивная
Бит/(Пиксели*Кадры) : 0.385
Размер потока : 4,37 Гбайт (80%)
Заголовок : Akkilahto.2016.BDRip.720p-ylnian
Библиотека кодирования : x264 core 148 r2638 7599210
Настройки программы : cabac=1 / ref=8 / deblock=1:-3:-3 / analyse=0x3:0x133 / me=umh / subme=11 / psy=1 / psy_rd=1.05:0.00 / mixed_ref=1 / me_range=48 / chroma_me=1 / trellis=2 / 8x8dct=1 / cqm=0 / deadzone=21,11 / fast_pskip=0 / chroma_qp_offset=-4 / threads=12 / lookahead_threads=2 / sliced_threads=0 / nr=0 / decimate=1 / interlaced=0 / bluray_compat=0 / constrained_intra=0 / bframes=8 / b_pyramid=2 / b_adapt=2 / b_bias=0 / direct=2 / weightb=1 / open_gop=0 / weightp=2 / keyint=230 / keyint_min=22 / scenecut=40 / intra_refresh=0 / rc_lookahead=60 / rc=crf / mbtree=0 / crf=15.0 / qcomp=0.60 / qpmin=0 / qpmax=69 / qpstep=4 / vbv_maxrate=62500 / vbv_bufsize=78125 / crf_max=0.0 / nal_hrd=none / filler=0 / ip_ratio=1.40 / pb_ratio=1.30 / aq=2:0.80
Язык : Finnish
Default : Да
Forced : Да
Аудио #1
Идентификатор : 2
Формат : DTS
Формат/Информация : Digital Theater Systems
Режим : 16
Параметр Endianness формата : Big
Идентификатор кодека : A_DTS
Продолжительность : 1 ч. 39 м.
Вид битрейта : Постоянный
Битрейт : 768 Кбит/сек
Каналы : 6 каналов
Расположение каналов : Front: L C R, Side: L R, LFE
Частота : 48,0 КГц
Частота кадров : 93,750 кадра/сек (512 spf)
Битовая глубина : 24 бит
Метод сжатия : С потерями
Размер потока : 547 Мбайт (10%)
Заголовок : AVO (DTS 5.1 768 kbps)
Язык : Russian
Default : Да
Forced : Да
Аудио #2
Идентификатор : 3
Формат : DTS
Формат/Информация : Digital Theater Systems
Режим : 16
Параметр Endianness формата : Big
Идентификатор кодека : A_DTS
Продолжительность : 1 ч. 39 м.
Вид битрейта : Постоянный
Битрейт : 768 Кбит/сек
Каналы : 6 каналов
Расположение каналов : Front: L C R, Side: L R, LFE
Частота : 48,0 КГц
Частота кадров : 93,750 кадра/сек (512 spf)
Битовая глубина : 24 бит
Метод сжатия : С потерями
Размер потока : 547 Мбайт (10%)
Заголовок : DTS 5.1 768 kbps
Язык : Finnish
Default : Нет
Forced : Нет
Текст
Идентификатор : 4
Формат : UTF-8
Идентификатор кодека : S_TEXT/UTF8
Идентификатор кодека/Информация : UTF-8 Plain Text
Продолжительность : 1 ч. 38 м.
Битрейт : 38 бит/сек
Count of elements : 743
Размер потока : 27,5 Кбайт (0%)
Язык : English
Default : Нет
Forced : Нет
Меню
00:00:00.000 : fi:00:00:00.000
00:08:44.315 : fi:00:08:44.315
00:16:44.253 : fi:00:16:44.253
00:27:06.583 : fi:00:27:06.583
00:34:57.178 : fi:00:34:57.178
00:41:27.776 : fi:00:41:27.776
00:49:31.259 : fi:00:49:31.259
00:58:04.355 : fi:00:58:04.355
01:10:14.543 : fi:01:10:14.543
01:22:04.586 : fi:01:22:04.586
01:30:13.408 : fi:01:30:13.408
01:36:31.911 : fi:01:36:31.911
01:38:40.039 : fi:01:38:40.039
[Profile] [PM]
Display posts from previous:    

The time now is: Today 10:58

All times are GMT



You cannot post new topics in this forum
You cannot reply to topics in this forum
You cannot edit your posts in this forum
You cannot delete your posts in this forum
You cannot vote in polls in this forum
You cannot attach files in this forum
You cannot download files in this forum