Потерянное дитя / Lost Child (2018) WEBRip 720p | L2

 
Автор Сообщение

BOSS ®

Пол:

Стаж: 4 года 2 месяца

Сообщений: 12658

Откуда: ODESSA



Награды: 22 (Подробнее)

Mega Releaser 1 (Количество: 1) Top Keeper 2 (Количество: 1) Mega Releaser 2 (Количество: 1)
Торрент-статистика

Создавать темы 28-Сен-2018 18:28

[Цитировать]

Информация о фильме
Название: Потерянное дитя
Оригинальное название: Lost Child
Год выхода: 2018
Жанр: Драма
Режиссер: Рамаа Мозли
В ролях: Ливэн Рамбин, Тейлор Джон Смит, Джим Пэррак, Ландон Эдвардс, Кип Дуэйн Коллинз, Тони Криттон Джонсон и другие
О фильме:
После нескольких лет службы в армии, Джанэлла Сривс возвращается в родной город в поисках своего родного брата. Много лет назад их пути разошлись, и ее брат Билли оказался в приемной семье. В надежде воссоединиться, Джанэлла понимает, что прошло много лет, и Билли уже не тот маленький мальчик. От отчаяния девушка отправляется в лес и находит мальчика, потерявшегося в тех местах. Оставит ли Джанэла его себе или бросит также, как и своего брата?

Страна: США, Green Hummingbird Entertainment,Laundry Films,Variety Pictures
Продолжительность: 01:41:17
Перевод: Любительский (двухголосый закадровый) | HiWay Grope
Файл
Кодек: MPEG-4 AVC/x.264
Качество: WEBRip 720p
Видео: 1280x536, 23.9760 fps, ~3000 kbps, 0.182 bit/pixel
Звук:
Аудио rus: AC3, 48 kHz, 6 ch, 384 Kbps
Субтитры: отсутствуют
Реклама: присутствует
Семпл

MediaInfo:

General
Unique ID : 4749691561632500509146370994919700101 (0x392C1DFC1DD1E4D8EB1A53A37EFF685)
Complete name : D:Lost.Child.2018.720p.WEBRip.HiWayGropeLost.Child.2018.720p.WEBRip.HiWayGrope.mkv
Format : Matroska
Format version : Version 4 / Version 2
File size : 2.36 GiB
Duration : 1 h 41 min
Overall bit rate : 3 336 kb/s
Encoded date : UTC 2018-09-28 08:22:27
Writing application : mkvmerge v25.0.0 ('Prog Noir') 64-bit
Writing library : libebml v1.3.6 + libmatroska v1.4.9
Video
ID : 1
Format : AVC
Format/Info : Advanced Video Codec
Format profile : High@L4.1
Format settings : CABAC / 9 Ref Frames
Format settings, CABAC : Yes
Format settings, RefFrames : 9 frames
Codec ID : V_MPEG4/ISO/AVC
Duration : 1 h 41 min
Bit rate : 3 000 kb/s
Width : 1 280 pixels
Height : 536 pixels
Display aspect ratio : 2.40:1
Frame rate mode : Constant
Frame rate : 23.976 (24000/1001) FPS
Original frame rate : 23.976 (23976/1000) FPS
Color space : YUV
Chroma subsampling : 4:2:0
Bit depth : 8 bits
Scan type : Progressive
Bits/(Pixel*Frame) : 0.182
Stream size : 2.09 GiB (88%)
Writing library : x264 core 152 r2851 ba24899
Encoding settings : cabac=1 / ref=9 / deblock=1:-1:-1 / analyse=0x3:0x113 / me=umh / subme=10 / psy=1 / psy_rd=1.00:0.15 / mixed_ref=1 / me_range=32 / chroma_me=1 / trellis=2 / 8x8dct=1 / cqm=0 / deadzone=21,11 / fast_pskip=1 / chroma_qp_offset=-3 / threads=17 / lookahead_threads=2 / sliced_threads=0 / nr=0 / decimate=1 / interlaced=0 / bluray_compat=0 / constrained_intra=0 / bframes=8 / b_pyramid=2 / b_adapt=2 / b_bias=0 / direct=1 / weightb=1 / open_gop=0 / weightp=2 / keyint=250 / keyint_min=23 / scenecut=40 / intra_refresh=0 / rc=abr / mbtree=0 / bitrate=3000 / ratetol=1.0 / qcomp=0.60 / qpmin=0 / qpmax=69 / qpstep=4 / ip_ratio=1.40 / pb_ratio=1.30 / aq=1:1.00
Language : English
Default : Yes
Forced : No
Color range : Limited
Color primaries : BT.709
Transfer characteristics : BT.709
Matrix coefficients : BT.709
Audio
ID : 2
Format : AC-3
Format/Info : Audio Coding 3
Codec ID : A_AC3
Duration : 1 h 41 min
Bit rate mode : Constant
Bit rate : 384 kb/s
Channel(s) : 6 channels
Channel positions : Front: L C R, Side: L R, LFE
Sampling rate : 48.0 kHz
Frame rate : 31.250 FPS (1536 SPF)
Bit depth : 16 bits
Compression mode : Lossy
Stream size : 278 MiB (12%)
Language : Russian
Service kind : Complete Main
Default : Yes
Forced : No

Скриншоты

Релиз от: HiWay Grope
[Профиль] [ЛС]
Кто просматривает тему:

Форум Тема Автор Размер
Pop (Рор) VA - Не потеряй мою любовь - 2015, MP3, 320 kbps Magnat 168 MB
History History: Потерянная пирамида / The Lost Pyramid (Dan Oliver, Nat Sharman) [2008 г., Документальный, научно-познавательный, история, HDTVRip 720p] skorpionN 3.17 GB
Nat Geo Wild Nat Geo Wild: Потерянные миры Индии / India's Lost Worlds [сезон 1 серии 1-3 из 3] (Jessica Connell) [2015 г., Документальный, природа, флора, фауна, HDTVRip-AVC 720p] skorpionN 4.41 GB
Nat Geo Wild Nat Geo Wild: Потерянный рай Колумбии / Wild Colombia's Lost Eden (Andrew Moorwood) [2016 г., Документальный, научно-популрный, фауна, флора, HDTVRip-AVC 720p] skorpionN 1.59 GB
PBS PBS: Секреты мертвых. Потерянные воины Карфагена / Secrets of the Dead. Carthage's lost Warriors (Майкл Грегор) [2014 г., Документально-постановочный, история, путешествия, HDTVRip-AVC 720p] skorpionN 1.65 GB
PBS PBS: Тайны Мертвых. Потерянные воины Карфагена / Secrets of the Dead. Carthage's lost Warriors (Майкл Грегор / Michael Gregor) [2014 г., Документальный, исследование, история, HDTVRip 720p] skorpionN 897 MB
PBS PBS: Тайны Мертвых. Потерянные корабли Древнего Рима / Secrets of the Dead. Lost Ships of Rome [сезон 10 эпизод 3 ] (Роберт Хатэл / Robert Hartel) [2010 г., Документальный, исследование, история,... skorpionN 1.57 GB
Apple, iOS, iPad, iPhone [iPad] Миллион способов потерять голову / A Million Ways to Die in the West (Сет МакФарлейн / Seth MacFarlane ) [2014, США, Комедия, вестерн, HDRip, SD (576p)] DUB + Original sergej644 1.98 GB
Показать сообщения:    

Текущее время: Сегодня 14:22

Часовой пояс: GMT



Вы не можете начинать темы
Вы не можете отвечать на сообщения
Вы не можете редактировать свои сообщения
Вы не можете удалять свои сообщения
Вы не можете голосовать в опросах
Вы не можете прикреплять файлы к сообщениям
Вы не можете скачивать файлы