Монстр из Мартфу / A martfui rem / Strangled (2016) BDRip 720p | L1

 
Author Message

BOSS ®

Gender:

Longevity: 4 years 8 months

Posts: 14112

Location: ODESSA



: 22 ()

Top Seeder 2 (1) Mega Releaser 2 (1) Top Keeper 1 (1)
Торрент-статистика

Post 28-Sep-2018 18:17

[Quote]

Информация о фильме
Название: Монстр из Мартфу
Оригинальное название: A martfui rem / Strangled
Год выхода: 2016
Жанр: Триллер, криминал, детектив, драма
Режиссер: Арпад Шопшич
В ролях: Карой Хайдук, Габор Ясбереньи, Жолт Ангер, Péter Bárnai, Жольт Трилль, Жофия Самоши, Моника Бальшаи, Андраш Ретейи, Пирошка Мога, Валентин Венцель
О фильме:
Венгрия, 1957 год. Рети Акош встречает после работы свою девушку, они ругаются, а через некоторое время её тело находят в реке. Рети сознаётся в убийстве и отправляется в тюрьму на 25 лет. Но через 7 лет после этого громкого дела в маленьком городке снова происходит убийство молодой женщины. От местных полицейских толку мало, и к ним на помощь из столицы прибывает молодой принципиальный прокурор...

Страна: Венгрия
Студия: FocusFox Studio
Продолжительность: 02:00:48
Перевод: Любительский одноголосый | Хихидок
Файл
Кодек: x.264
Качество: BDRip 720p | Strangled.2016.LiMiTED.720p.BluRay.x264-CADAVER
Видео: MPEG-4 AVC, 1280x536, 4966 Кбит/с, 23.976 кадр/с
Звук: Небольшая реклама в титрах
Аудио #1: Русский ( АС3, 2ch, 256 Кбит/с, 48.0 KHz) Любительский (одноголосый, закадровый) Хихикающий доктор
Аудио #2: Венгерский ( АС3, 6ch, 384 Кбит/с, 48.0 KHz)
Субтитры: английские

MediaInfo

Источник: Strangled.2016.LiMiTED.720p.BluRay.x264-CADAVER
General
Unique ID : 209512456230759122728003818836489478561 (0x9D9EA19E0950BB1B846174F90C0921A1)
Complete name : Strangled.2016.BDRip.720p.mkv
Format : Matroska
Format version : Version 4 / Version 2
File size : 4.73 GiB
Duration : 2h 0mn
Overall bit rate : 5 607 Kbps
Encoded date : UTC 2018-09-27 16:56:07
Writing application : mkvmerge v7.1.0 ('Good Love') 64bit built on Jul 27 2014 13:06:55
Writing library : libebml v1.3.0 + libmatroska v1.4.1
Video
ID : 1
Format : AVC
Format/Info : Advanced Video Codec
Format profile : High@L4.1
Format settings, CABAC : Yes
Format settings, ReFrames : 5 frames
Codec ID : V_MPEG4/ISO/AVC
Duration : 2h 0mn
Bit rate : 4 966 Kbps
Width : 1 280 pixels
Height : 536 pixels
Display aspect ratio : 2.40:1
Frame rate mode : Constant
Frame rate : 23.976 (24000/1001) fps
Color space : YUV
Chroma subsampling : 4:2:0
Bit depth : 8 bits
Scan type : Progressive
Bits/(Pixel*Frame) : 0.302
Stream size : 4.19 GiB (89%)
Writing library : x264 core 155 r2901 7d0ff22
Encoding settings : cabac=1 / ref=5 / deblock=1:-3:-3 / analyse=0x3:0x133 / me=umh / subme=8 / psy=1 / psy_rd=1.00:0.00 / mixed_ref=1 / me_range=16 / chroma_me=1 / trellis=1 / 8x8dct=1 / cqm=0 / deadzone=21,11 / fast_pskip=0 / chroma_qp_offset=-2 / threads=17 / lookahead_threads=2 / sliced_threads=0 / nr=0 / decimate=1 / interlaced=0 / bluray_compat=0 / constrained_intra=0 / bframes=3 / b_pyramid=2 / b_adapt=1 / b_bias=0 / direct=3 / weightb=1 / open_gop=0 / weightp=2 / keyint=250 / keyint_min=23 / scenecut=40 / intra_refresh=0 / rc_lookahead=50 / rc=2pass / mbtree=1 / bitrate=4966 / ratetol=1.0 / qcomp=0.60 / qpmin=0 / qpmax=69 / qpstep=4 / cplxblur=20.0 / qblur=0.5 / vbv_maxrate=62500 / vbv_bufsize=78125 / nal_hrd=none / filler=0 / ip_ratio=1.40 / aq=1:1.00
Default : Yes
Forced : No
Audio #1
ID : 2
Format : AC-3
Format/Info : Audio Coding 3
Mode extension : CM (complete main)
Format settings, Endianness : Big
Codec ID : A_AC3
Duration : 2h 0mn
Bit rate mode : Constant
Bit rate : 256 Kbps
Channel(s) : 2 channels
Channel positions : Front: L R
Sampling rate : 48.0 KHz
Frame rate : 31.250 fps (1536 spf)
Compression mode : Lossy
Stream size : 221 MiB (5%)
Language : Russian
Default : Yes
Forced : No
Audio #2
ID : 3
Format : AC-3
Format/Info : Audio Coding 3
Mode extension : CM (complete main)
Format settings, Endianness : Big
Codec ID : A_AC3
Duration : 2h 0mn
Bit rate mode : Constant
Bit rate : 384 Kbps
Channel(s) : 6 channels
Channel positions : Front: L C R, Side: L R, LFE
Sampling rate : 48.0 KHz
Frame rate : 31.250 fps (1536 spf)
Compression mode : Lossy
Stream size : 332 MiB (7%)
Language : Hungarian
Default : No
Forced : No
Text
ID : 4
Format : UTF-8
Codec ID : S_TEXT/UTF8
Codec ID/Info : UTF-8 Plain Text
Duration : 1h 56mn
Bit rate : 36 bps
Count of elements : 1047
Stream size : 31.1 KiB (0%)
Language : English
Default : No
Forced : No
Menu
00:00:00.000 : en:00:00:00.000
00:10:02.602 : en:00:10:02.602
00:20:07.748 : en:00:20:07.748
00:30:01.508 : en:00:30:01.508
00:41:07.090 : en:00:41:07.090
00:49:02.314 : en:00:49:02.314
01:00:01.181 : en:01:00:01.181
01:09:59.779 : en:01:09:59.779
01:20:33.537 : en:01:20:33.537
01:28:40.941 : en:01:28:40.941
01:39:55.990 : en:01:39:55.990
01:51:51.330 : en:01:51:51.330
[Profile] [PM]
Кто просматривает тему:

Forum Topic Author Size
Nat Geo Wild Nat Geo Wild: Лягушка-монстр / Monster Frog (Benjamin Hewett) [2014 г., Документальный, природа, флора, фауна, HDTVRip-AVC 720p] skorpionN 1.59 GB
Nat Geo Wild Nat Geo Wild: На крючке: Рыбы монстры / Hooked: Monster Fish (10 выпускoв) (Carlos Mora) [2008-2010, Документальный цикл, познавательный, HDTV 1080i, RU, EN] TorrentFilm 31.68 GB
National Geographic National Geographic: Гибель морского монстра / Death of a Sea Monster (Sue Houghton) [2010 г., Документальный, научно-популярный, палеонтология, исследования, HDTVRip-AVC 720p] skorpionN 1.47 GB
National Geographic NG: Топ 10 Мегамонстры / Top 10 Biggest Beasts Ever (Оливер Твинч) [2015 г., Документальный, познавательный, палеонтология, HDTVRip-AVC 1080i] skorpionN 4.81 GB
Фильмы (HD Rips | 720p, 1080p) Бал монстров / Monster's Ball (2001) BDRip 720p by msltel | P sergej644 4.87 GB
Боевики, детективы, триллеры Бовен Патрик - Цирк монстров (2014) MP3 sergej644 754 MB
Фильмы (HD Rips | 720p, 1080p) Вечеринка монстров / Monster Party (2018) WEBRip 720p | L2 BOSS 1.81 GB
Фильмы 2018 года Вечеринка монстров / Monster Party (2018) WEBRip | L2 BOSS 1.25 GB
Display posts from previous:    

The time now is: Today 10:58

All times are GMT



You cannot post new topics in this forum
You cannot reply to topics in this forum
You cannot edit your posts in this forum
You cannot delete your posts in this forum
You cannot vote in polls in this forum
You cannot attach files in this forum
You cannot download files in this forum