12 стульев (Марк Захаров) [1977, комедия, DVDRip-AVC]

 
Автор Сообщение

reversefile ®

Пол:

Стаж: 4 года 5 месяцев

Сообщений: 842

Откуда: ReverseFile.org



Награды: Нет

Торрент-статистика

Создавать темы 11-Авг-2014 06:20

[Цитировать]

12 стульев (4 серии)- Жанр: комедия
Год выпуска: 1977
Продолжительность: 01:05:21 + 01:05:30 + 01:19:51 + 01:17:47-Режиссёр: Марк Захаров-В ролях:
Андрей Миронов, Анатолий Папанов, Ролан Быков, Георгий Вицин, Николай Скоробогатов, Олег Табаков, Татьяна Пельтцер, Нелли Гошева, Нина Лапшинова, Любовь Полищук, Наталья Журавлёва, Александра Дорохина, Олег Степанов, Александр Пятков, Лидия Федосеева-Шукшина, Вера Орлова, Марк Прудкин, Савелий Крамаров, Дмитрий Гошев, Вячеслав Богачёв, Борис Ульянов, Александр Шешко, Александр Пермяков, Николай Шушарин, Татьяна Божок, Виктор Проскурин, Елена Шанина, Александр Абдулов, Всеволод Ларионов, Михаил Водяной, Григорий Шпигель, Вера Ивлева, Евгений Перов, Михаил Светин, Александр Ширвиндт, Юрий Медведев, Борис Беккер, Павел Павленко, Лев Борисов, Галина Соколова
Описание:
Бывший Старгородский предводитель дворянства Ипполит Матвеевич Воробьянинов узнает от умирающей тещи, что некогда она спрятала свои драгоценности на 150 000 золотых рублей под обивку одного из двенадцати стульев гостиного гарнитура. Бросив все, Воробьянинов бросается на поиски стульев, в чем ему небескорыстно берется помочь "великий комбинатор" Остап Бендер. Найти следы разрозненного гарнитура непросто - перед смертью теща предводителя открыла тайну сокровищ и своему исповеднику, отцу Федору, всю жизнь мечтавшему о свечном заводике в Самаре...-Сэмпл | Кинопоиск-Качество видео: DVDRip-AVC, благодарю stogach за оригинал фильма.
Формат видео: MKV
Видео: x264 (High@L4.1); 720@768x576, Display aspect ratio 4:3, 25.000 fps, 2379 - 2500 Kbps
Аудио 1: Оригинал: AC-3; 16 bit 48 Khz; Mono 224 Kbps; CBR
Аудио 2: Оригинал: AC-3; 16 bit 48 Khz; 5.1 ch 448 Kbps; CBR (3 и 4 серии - отдельно)

MediaInfo1 серия


-

x264 log

avs [info]: 720x576p 16:15 @ 25/1 fps (cfr)
x264 [info]: using SAR=16/15
x264 [info]: using cpu capabilities: MMX2 SSE2Fast SSSE3 SSE4.2
x264 [info]: profile High, level 4.1
x264 [info]: frame I:492 Avg QP:18.65 size: 56005
x264 [info]: frame P:21280 Avg QP:21.23 size: 25621
x264 [info]: frame B:76262 Avg QP:23.77 size: 8557
x264 [info]: consecutive B-frames: 1.6% 2.4% 16.8% 6.4% 4.3% 66.8% 1.2% 0.1% 0.1% 0.0% 0.0% 0.0% 0.0% 0.0% 0.0% 0.0% 0.1%
x264 [info]: mb I I16..4: 2.8% 90.8% 6.4%
x264 [info]: mb P I16..4: 0.6% 18.8% 0.5% P16..4: 33.7% 32.4% 12.5% 0.6% 0.0% skip: 0.9%
x264 [info]: mb B I16..4: 0.1% 2.8% 0.0% B16..8: 37.5% 17.7% 2.4% direct: 9.3% skip:30.1% L0:35.1% L1:37.5% BI:27.3%
x264 [info]: 8x8 transform intra:94.4% inter:78.1%
x264 [info]: direct mvs spatial:98.5% temporal:1.5%
x264 [info]: coded y,uvDC,uvAC intra: 93.4% 81.8% 38.9% inter: 36.3% 32.5% 6.4%
x264 [info]: i16 v,h,dc,p: 31% 14% 11% 44%
x264 [info]: i8 v,h,dc,ddl,ddr,vr,hd,vl,hu: 17% 9% 14% 7% 9% 11% 9% 12% 12%
x264 [info]: i4 v,h,dc,ddl,ddr,vr,hd,vl,hu: 16% 6% 5% 8% 16% 17% 12% 11% 9%
x264 [info]: i8c dc,h,v,p: 27% 27% 28% 18%
x264 [info]: Weighted P-Frames: Y:33.3% UV:19.9%
x264 [info]: ref P L0: 37.8% 13.8% 15.8% 7.2% 5.1% 4.0% 3.3% 2.0% 1.8% 1.6% 1.5% 1.4% 1.3% 1.2% 1.2% 0.9%
x264 [info]: ref B L0: 80.2% 10.0% 2.7% 1.7% 1.0% 1.0% 0.7% 0.5% 0.4% 0.4% 0.3% 0.4% 0.3% 0.2% 0.1%
x264 [info]: ref B L1: 95.2% 4.8%
x264 [info]: kb/s:2499.78
x264 [total]: encoded 98034 frames, 11.03 fps, 2499.78 kb/s
-General
Unique ID : 236584630810090182642605875791369061998 (0xB1FC8AE05B0A4D24AA4DD652B317C66E)
Complete name : 12 стульев.1977.1 серия.mkv
Format : Matroska
Format version : Version 2
File size : 1.45 GiB
Duration : 1h 5mn
Overall bit rate : 3 174 Kbps
Movie name : «12 стульев»
Encoded date : UTC 2014-06-25 18:10:10
Writing application : mkvmerge v5.8.0 ('No Sleep / Pillow') built on Sep 2 2012 15:37:04
Writing library : libebml v1.2.3 + libmatroska v1.3.0
Comment : DVDRip-AVC
Original date released : June 25th 2014
Encoded by : imgeorgest®
Video
ID : 1
Format : AVC
Format/Info : Advanced Video Codec
Format profile : High@L4.1
Format settings, CABAC : Yes
Format settings, ReFrames : 16 frames
Codec ID : V_MPEG4/ISO/AVC
Duration : 1h 5mn
Bit rate : 2 500 Kbps
Width : 720 pixels
Height : 576 pixels
Display aspect ratio : 4:3
Frame rate mode : Constant
Frame rate : 25.000 fps
Standard : PAL
Color space : YUV
Chroma subsampling : 4:2:0
Bit depth : 8 bits
Scan type : Progressive
Bits/(Pixel*Frame) : 0.241
Stream size : 1.11 GiB (77%)
Title : 12 стульев.1977.1 серия
Writing library : x264 core 130 r2273 b3065e6
Encoding settings : cabac=1 / ref=16 / deblock=1:-2:-2 / analyse=0x3:0x133 / me=umh / subme=11 / psy=1 / psy_rd=0.92:0.00 / mixed_ref=1 / me_range=48 / chroma_me=1 / trellis=2 / 8x8dct=1 / cqm=0 / deadzone=21,11 / fast_pskip=0 / chroma_qp_offset=-2 / threads=12 / lookahead_threads=3 / sliced_threads=0 / nr=0 / decimate=0 / interlaced=0 / bluray_compat=0 / constrained_intra=0 / bframes=16 / b_pyramid=2 / b_adapt=2 / b_bias=0 / direct=3 / weightb=1 / open_gop=0 / weightp=2 / keyint=250 / keyint_min=25 / scenecut=40 / intra_refresh=0 / rc_lookahead=60 / rc=2pass / mbtree=1 / bitrate=2500 / ratetol=1.0 / qcomp=0.75 / qpmin=0 / qpmax=32 / qpstep=4 / cplxblur=20.0 / qblur=0.5 / vbv_maxrate=50000 / vbv_bufsize=62500 / nal_hrd=none / ip_ratio=1.35 / aq=1:0.90
Language : Russian
Default : Yes
Forced : No
Color primaries : BT.601 PAL
Transfer characteristics : BT.470 System B, BT.470 System G
Matrix coefficients : BT.601
Audio #1
ID : 2
Format : AC-3
Format/Info : Audio Coding 3
Mode extension : CM (complete main)
Format settings, Endianness : Big
Codec ID : A_AC3
Duration : 1h 5mn
Bit rate mode : Constant
Bit rate : 224 Kbps
Channel(s) : 1 channel
Channel positions : Front: C
Sampling rate : 48.0 KHz
Bit depth : 16 bits
Compression mode : Lossy
Stream size : 105 MiB (7%)
Title : Оригинал: AC-3; 16 bit 48 Khz; Mono 224 Kbps; CBR
Language : Russian
Default : Yes
Forced : No
Audio #2
ID : 3
Format : AC-3
Format/Info : Audio Coding 3
Mode extension : CM (complete main)
Format settings, Endianness : Big
Codec ID : A_AC3
Duration : 1h 5mn
Bit rate mode : Constant
Bit rate : 448 Kbps
Channel(s) : 6 channels
Channel positions : Front: L C R, Side: L R, LFE
Sampling rate : 48.0 KHz
Bit depth : 16 bits
Compression mode : Lossy
Stream size : 209 MiB (14%)
Title : Оригинал: AC-3; 16 bit 48 Khz; 5.1 ch 448 Kbps; CBR
Language : Russian
Default : No
Forced : No

2 серия


-

x264 log

avs [info]: 720x576p 16:15 @ 25/1 fps (cfr)
x264 [info]: using SAR=16/15
x264 [info]: using cpu capabilities: MMX2 SSE2Fast SSSE3 SSE4.2
x264 [info]: profile High, level 4.1
x264 [info]: frame I:495 Avg QP:16.69 size: 56569
x264 [info]: frame P:21843 Avg QP:19.69 size: 24970
x264 [info]: frame B:75933 Avg QP:23.06 size: 8620
x264 [info]: consecutive B-frames: 1.7% 2.5% 18.5% 8.4% 5.9% 59.2% 1.9% 0.5% 0.5% 0.1% 0.1% 0.2% 0.1% 0.0% 0.1% 0.1% 0.3%
x264 [info]: mb I I16..4: 12.4% 77.7% 9.8%
x264 [info]: mb P I16..4: 1.0% 15.3% 0.6% P16..4: 31.1% 28.2% 12.9% 0.9% 0.1% skip:10.1%
x264 [info]: mb B I16..4: 0.1% 2.3% 0.0% B16..8: 33.9% 17.5% 2.6% direct: 9.1% skip:34.3% L0:34.5% L1:35.4% BI:30.1%
x264 [info]: 8x8 transform intra:90.4% inter:75.4%
x264 [info]: direct mvs spatial:98.1% temporal:1.9%
x264 [info]: coded y,uvDC,uvAC intra: 87.6% 79.3% 40.1% inter: 35.6% 28.8% 6.8%
x264 [info]: i16 v,h,dc,p: 68% 12% 6% 13%
x264 [info]: i8 v,h,dc,ddl,ddr,vr,hd,vl,hu: 20% 10% 17% 6% 8% 10% 7% 11% 11%
x264 [info]: i4 v,h,dc,ddl,ddr,vr,hd,vl,hu: 21% 7% 12% 6% 13% 14% 10% 9% 8%
x264 [info]: i8c dc,h,v,p: 27% 28% 29% 16%
x264 [info]: Weighted P-Frames: Y:31.4% UV:17.3%
x264 [info]: ref P L0: 38.6% 13.7% 16.1% 7.2% 5.1% 3.9% 3.1% 1.9% 1.7% 1.6% 1.4% 1.3% 1.2% 1.1% 1.1% 0.8%
x264 [info]: ref B L0: 80.9% 9.7% 2.8% 1.7% 1.0% 0.9% 0.6% 0.4% 0.4% 0.4% 0.3% 0.3% 0.3% 0.2% 0.1%
x264 [info]: ref B L1: 94.6% 5.4%
x264 [info]: kb/s:2499.15
x264 [total]: encoded 98271 frames, 12.25 fps, 2499.15 kb/s
-General
Unique ID : 182432763031701211638006681950707628734 (0x893F45A964FFF34DA76DC883406DBABE)
Complete name : 12 стульев.1977.2 серия.mkv
Format : Matroska
Format version : Version 2
File size : 1.45 GiB
Duration : 1h 5mn
Overall bit rate : 3 173 Kbps
Movie name : «12 стульев»
Encoded date : UTC 2014-06-25 18:13:10
Writing application : mkvmerge v5.8.0 ('No Sleep / Pillow') built on Sep 2 2012 15:37:04
Writing library : libebml v1.2.3 + libmatroska v1.3.0
Comment : DVDRip-AVC
Original date released : June 25th 2014
Encoded by : imgeorgest®
Video
ID : 1
Format : AVC
Format/Info : Advanced Video Codec
Format profile : High@L4.1
Format settings, CABAC : Yes
Format settings, ReFrames : 16 frames
Codec ID : V_MPEG4/ISO/AVC
Duration : 1h 5mn
Bit rate : 2 500 Kbps
Width : 720 pixels
Height : 576 pixels
Display aspect ratio : 4:3
Frame rate mode : Constant
Frame rate : 25.000 fps
Standard : PAL
Color space : YUV
Chroma subsampling : 4:2:0
Bit depth : 8 bits
Scan type : Progressive
Bits/(Pixel*Frame) : 0.241
Stream size : 1.12 GiB (77%)
Title : 12 стульев.1977.2 серия
Writing library : x264 core 130 r2273 b3065e6
Encoding settings : cabac=1 / ref=16 / deblock=1:-2:-2 / analyse=0x3:0x133 / me=umh / subme=11 / psy=1 / psy_rd=0.92:0.00 / mixed_ref=1 / me_range=48 / chroma_me=1 / trellis=2 / 8x8dct=1 / cqm=0 / deadzone=21,11 / fast_pskip=0 / chroma_qp_offset=-2 / threads=12 / lookahead_threads=3 / sliced_threads=0 / nr=0 / decimate=0 / interlaced=0 / bluray_compat=0 / constrained_intra=0 / bframes=16 / b_pyramid=2 / b_adapt=2 / b_bias=0 / direct=3 / weightb=1 / open_gop=0 / weightp=2 / keyint=250 / keyint_min=25 / scenecut=40 / intra_refresh=0 / rc_lookahead=60 / rc=2pass / mbtree=1 / bitrate=2500 / ratetol=1.0 / qcomp=0.75 / qpmin=0 / qpmax=32 / qpstep=4 / cplxblur=20.0 / qblur=0.5 / vbv_maxrate=50000 / vbv_bufsize=62500 / nal_hrd=none / ip_ratio=1.35 / aq=1:0.90
Language : Russian
Default : Yes
Forced : No
Color primaries : BT.601 PAL
Transfer characteristics : BT.470 System B, BT.470 System G
Matrix coefficients : BT.601
Audio #1
ID : 2
Format : AC-3
Format/Info : Audio Coding 3
Mode extension : CM (complete main)
Format settings, Endianness : Big
Codec ID : A_AC3
Duration : 1h 5mn
Bit rate mode : Constant
Bit rate : 224 Kbps
Channel(s) : 1 channel
Channel positions : Front: C
Sampling rate : 48.0 KHz
Bit depth : 16 bits
Compression mode : Lossy
Stream size : 105 MiB (7%)
Title : Оригинал: AC-3; 16 bit 48 Khz; Mono 224 Kbps; CBR
Language : Russian
Default : Yes
Forced : No
Audio #2
ID : 3
Format : AC-3
Format/Info : Audio Coding 3
Mode extension : CM (complete main)
Format settings, Endianness : Big
Codec ID : A_AC3
Duration : 1h 5mn
Bit rate mode : Constant
Bit rate : 448 Kbps
Channel(s) : 6 channels
Channel positions : Front: L C R, Side: L R, LFE
Sampling rate : 48.0 KHz
Bit depth : 16 bits
Compression mode : Lossy
Stream size : 210 MiB (14%)
Title : Оригинал: AC-3; 16 bit 48 Khz; 5.1 ch 448 Kbps; CBR
Language : Russian
Default : No
Forced : No

3 серия


-

x264 log

avs [info]: 720x576p 16:15 @ 25/1 fps (cfr)
x264 [info]: using SAR=16/15
x264 [info]: using cpu capabilities: MMX2 SSE2Fast SSSE3 SSE4.2
x264 [info]: profile High, level 4.1
x264 [info]: frame I:601 Avg QP:17.11 size: 52199
x264 [info]: frame P:26413 Avg QP:19.75 size: 23564
x264 [info]: frame B:92827 Avg QP:22.75 size: 8311
x264 [info]: consecutive B-frames: 1.5% 1.9% 20.0% 6.9% 4.6% 64.0% 0.8% 0.2% 0.1% 0.0% 0.0% 0.0% 0.0% 0.0% 0.0% 0.0% 0.0%
x264 [info]: mb I I16..4: 3.4% 89.1% 7.5%
x264 [info]: mb P I16..4: 0.9% 18.1% 0.6% P16..4: 33.8% 32.1% 12.2% 0.8% 0.1% skip: 1.5%
x264 [info]: mb B I16..4: 0.1% 2.6% 0.1% B16..8: 37.4% 18.3% 2.7% direct: 8.9% skip:30.0% L0:36.7% L1:38.1% BI:25.2%
x264 [info]: 8x8 transform intra:92.5% inter:75.6%
x264 [info]: direct mvs spatial:98.8% temporal:1.2%
x264 [info]: coded y,uvDC,uvAC intra: 90.9% 77.4% 33.5% inter: 35.0% 28.5% 4.5%
x264 [info]: i16 v,h,dc,p: 45% 12% 8% 36%
x264 [info]: i8 v,h,dc,ddl,ddr,vr,hd,vl,hu: 19% 10% 15% 7% 8% 11% 8% 12% 11%
x264 [info]: i4 v,h,dc,ddl,ddr,vr,hd,vl,hu: 18% 6% 7% 7% 14% 17% 11% 10% 8%
x264 [info]: i8c dc,h,v,p: 26% 30% 29% 16%
x264 [info]: Weighted P-Frames: Y:31.6% UV:15.9%
x264 [info]: ref P L0: 39.0% 13.0% 15.3% 7.0% 5.1% 4.0% 3.3% 2.0% 1.9% 1.7% 1.6% 1.4% 1.4% 1.2% 1.2% 0.9%
x264 [info]: ref B L0: 80.1% 9.7% 2.9% 1.7% 1.1% 1.0% 0.7% 0.5% 0.4% 0.4% 0.4% 0.4% 0.3% 0.3% 0.1%
x264 [info]: ref B L1: 94.8% 5.2%
x264 [info]: kb/s:2378.59
x264 [total]: encoded 119841 frames, 11.18 fps, 2378.59 kb/s
-General
Unique ID : 237368998675283516864030664754429174154 (0xB2939B32A987D58CA0831D4661E0218A)
Complete name : 12 стульев.1977.3 серия.mkv
Format : Matroska
Format version : Version 2
File size : 1.45 GiB
Duration : 1h 19mn
Overall bit rate : 2 604 Kbps
Movie name : «12 стульев»
Encoded date : UTC 2014-06-26 17:57:46
Writing application : mkvmerge v5.8.0 ('No Sleep / Pillow') built on Sep 2 2012 15:37:04
Writing library : libebml v1.2.3 + libmatroska v1.3.0
Comment : DVDRip-AVC
Original date released : June 26th 2014
Encoded by : imgeorgest®
Video
ID : 1
Format : AVC
Format/Info : Advanced Video Codec
Format profile : High@L4.1
Format settings, CABAC : Yes
Format settings, ReFrames : 16 frames
Codec ID : V_MPEG4/ISO/AVC
Duration : 1h 19mn
Bit rate : 2 379 Kbps
Width : 720 pixels
Height : 576 pixels
Display aspect ratio : 4:3
Frame rate mode : Constant
Frame rate : 25.000 fps
Standard : PAL
Color space : YUV
Chroma subsampling : 4:2:0
Bit depth : 8 bits
Scan type : Progressive
Bits/(Pixel*Frame) : 0.229
Stream size : 1.30 GiB (89%)
Title : 12 стульев.1977.3 серия
Writing library : x264 core 130 r2273 b3065e6
Encoding settings : cabac=1 / ref=16 / deblock=1:-2:-2 / analyse=0x3:0x133 / me=umh / subme=11 / psy=1 / psy_rd=0.95:0.00 / mixed_ref=1 / me_range=48 / chroma_me=1 / trellis=2 / 8x8dct=1 / cqm=0 / deadzone=21,11 / fast_pskip=0 / chroma_qp_offset=-2 / threads=12 / lookahead_threads=3 / sliced_threads=0 / nr=0 / decimate=0 / interlaced=0 / bluray_compat=0 / constrained_intra=0 / bframes=16 / b_pyramid=2 / b_adapt=2 / b_bias=0 / direct=3 / weightb=1 / open_gop=0 / weightp=2 / keyint=250 / keyint_min=25 / scenecut=40 / intra_refresh=0 / rc_lookahead=60 / rc=2pass / mbtree=1 / bitrate=2379 / ratetol=1.0 / qcomp=0.75 / qpmin=0 / qpmax=32 / qpstep=4 / cplxblur=20.0 / qblur=0.5 / vbv_maxrate=50000 / vbv_bufsize=62500 / nal_hrd=none / ip_ratio=1.35 / aq=1:0.90
Language : Russian
Default : Yes
Forced : No
Color primaries : BT.601 PAL
Transfer characteristics : BT.470 System B, BT.470 System G
Matrix coefficients : BT.601
Audio
ID : 2
Format : AC-3
Format/Info : Audio Coding 3
Mode extension : CM (complete main)
Format settings, Endianness : Big
Codec ID : A_AC3
Duration : 1h 19mn
Bit rate mode : Constant
Bit rate : 224 Kbps
Channel(s) : 1 channel
Channel positions : Front: C
Sampling rate : 48.0 KHz
Bit depth : 16 bits
Compression mode : Lossy
Stream size : 128 MiB (9%)
Title : Оригинал: AC-3; 16 bit 48 Khz; Mono 224 Kbps; CBR
Language : Russian
Default : Yes
Forced : No

4 серия


-

x264 log

avs [info]: 720x576p 16:15 @ 25/1 fps (cfr)
x264 [info]: using SAR=16/15
x264 [info]: using cpu capabilities: MMX2 SSE2Fast SSSE3 SSE4.2
x264 [info]: profile High, level 4.1
x264 [info]: frame I:574 Avg QP:16.95 size: 52705
x264 [info]: frame P:25742 Avg QP:19.97 size: 23989
x264 [info]: frame B:90363 Avg QP:23.20 size: 8633
x264 [info]: consecutive B-frames: 1.6% 2.1% 19.4% 7.9% 5.3% 60.4% 1.6% 0.3% 0.4% 0.2% 0.2% 0.2% 0.1% 0.0% 0.0% 0.0% 0.4%
x264 [info]: mb I I16..4: 15.0% 75.4% 9.6%
x264 [info]: mb P I16..4: 1.1% 15.4% 0.6% P16..4: 30.4% 27.0% 12.3% 0.9% 0.1% skip:12.3%
x264 [info]: mb B I16..4: 0.1% 2.4% 0.1% B16..8: 34.3% 17.6% 2.7% direct: 8.5% skip:34.3% L0:35.4% L1:35.8% BI:28.8%
x264 [info]: 8x8 transform intra:89.4% inter:75.9%
x264 [info]: direct mvs spatial:98.1% temporal:1.9%
x264 [info]: coded y,uvDC,uvAC intra: 86.0% 77.7% 40.0% inter: 35.0% 26.8% 5.8%
x264 [info]: i16 v,h,dc,p: 68% 13% 7% 11%
x264 [info]: i8 v,h,dc,ddl,ddr,vr,hd,vl,hu: 19% 10% 17% 6% 8% 10% 8% 11% 11%
x264 [info]: i4 v,h,dc,ddl,ddr,vr,hd,vl,hu: 18% 7% 13% 7% 13% 14% 10% 9% 9%
x264 [info]: i8c dc,h,v,p: 29% 29% 27% 16%
x264 [info]: Weighted P-Frames: Y:32.4% UV:16.0%
x264 [info]: ref P L0: 38.3% 13.4% 16.1% 7.3% 5.1% 3.9% 3.2% 2.0% 1.8% 1.6% 1.5% 1.3% 1.3% 1.2% 1.2% 0.9%
x264 [info]: ref B L0: 80.0% 9.8% 3.0% 1.7% 1.1% 1.0% 0.7% 0.5% 0.4% 0.4% 0.3% 0.3% 0.3% 0.2% 0.1%
x264 [info]: ref B L1: 94.6% 5.4%
x264 [info]: kb/s:2447.53
x264 [total]: encoded 116679 frames, 12.47 fps, 2447.53 kb/s
-General
Unique ID : 250096922734476475938718510812895091220 (0xBC26EA4DC7EB7C0ABE5C95B17D2B9A14)
Complete name : 12 стульев.1977.4 серия.mkv
Format : Matroska
Format version : Version 2
File size : 1.45 GiB
Duration : 1h 17mn
Overall bit rate : 2 673 Kbps
Movie name : «12 стульев»
Encoded date : UTC 2014-06-26 18:00:56
Writing application : mkvmerge v5.8.0 ('No Sleep / Pillow') built on Sep 2 2012 15:37:04
Writing library : libebml v1.2.3 + libmatroska v1.3.0
Comment : DVDRip-AVC
Original date released : June 26th 2014
Encoded by : imgeorgest®
Video
ID : 1
Format : AVC
Format/Info : Advanced Video Codec
Format profile : High@L4.1
Format settings, CABAC : Yes
Format settings, ReFrames : 16 frames
Codec ID : V_MPEG4/ISO/AVC
Duration : 1h 17mn
Bit rate : 2 448 Kbps
Width : 720 pixels
Height : 576 pixels
Display aspect ratio : 4:3
Frame rate mode : Constant
Frame rate : 25.000 fps
Standard : PAL
Color space : YUV
Chroma subsampling : 4:2:0
Bit depth : 8 bits
Scan type : Progressive
Bits/(Pixel*Frame) : 0.236
Stream size : 1.30 GiB (90%)
Title : 12 стульев.1977.4 серия
Writing library : x264 core 130 r2273 b3065e6
Encoding settings : cabac=1 / ref=16 / deblock=1:-2:-2 / analyse=0x3:0x133 / me=umh / subme=11 / psy=1 / psy_rd=0.95:0.00 / mixed_ref=1 / me_range=48 / chroma_me=1 / trellis=2 / 8x8dct=1 / cqm=0 / deadzone=21,11 / fast_pskip=0 / chroma_qp_offset=-2 / threads=12 / lookahead_threads=3 / sliced_threads=0 / nr=0 / decimate=0 / interlaced=0 / bluray_compat=0 / constrained_intra=0 / bframes=16 / b_pyramid=2 / b_adapt=2 / b_bias=0 / direct=3 / weightb=1 / open_gop=0 / weightp=2 / keyint=250 / keyint_min=25 / scenecut=40 / intra_refresh=0 / rc_lookahead=60 / rc=2pass / mbtree=1 / bitrate=2448 / ratetol=1.0 / qcomp=0.75 / qpmin=0 / qpmax=32 / qpstep=4 / cplxblur=20.0 / qblur=0.5 / vbv_maxrate=50000 / vbv_bufsize=62500 / nal_hrd=none / ip_ratio=1.35 / aq=1:0.90
Language : Russian
Default : Yes
Forced : No
Color primaries : BT.601 PAL
Transfer characteristics : BT.470 System B, BT.470 System G
Matrix coefficients : BT.601
Audio
ID : 2
Format : AC-3
Format/Info : Audio Coding 3
Mode extension : CM (complete main)
Format settings, Endianness : Big
Codec ID : A_AC3
Duration : 1h 17mn
Bit rate mode : Constant
Bit rate : 224 Kbps
Channel(s) : 1 channel
Channel positions : Front: C
Sampling rate : 48.0 KHz
Bit depth : 16 bits
Compression mode : Lossy
Stream size : 125 MiB (8%)
Title : Оригинал: AC-3; 16 bit 48 Khz; Mono 224 Kbps; CBR
Language : Russian
Default : Yes
Forced : No
--
[Профиль] [ЛС]

Создавать темы 06-Авг-2015 22:04 (спустя 11 месяцев 26 дней)

Топик был перенесен из форума Кино СССР в форум Кино СССР
sergej644
 
Кто просматривает тему:

Показать сообщения:    

Текущее время: Сегодня 06:10

Часовой пояс: GMT



Вы не можете начинать темы
Вы не можете отвечать на сообщения
Вы не можете редактировать свои сообщения
Вы не можете удалять свои сообщения
Вы не можете голосовать в опросах
Вы не можете прикреплять файлы к сообщениям
Вы не можете скачивать файлы