12 раундов 3 / 12 Rounds 3: Lockdown (Стивен Рейнольдс / Stephen Reynolds) [2015, США, Боевик, HDRip] VO (Петр Титов) + Original Eng

 
Автор Сообщение

TorrentFilm ®

Пол:

Стаж: 2 года

Сообщений: 7741



Награды: Нет

Торрент-статистика

Создавать темы 25-Сен-2015 00:09

[Цитировать]

12 раундов 3 / 12 Rounds 3: Lockdown
Страна: США
Жанр: Боевик
Год выпуска: 2015
Продолжительность: 01:30:11
Перевод: Одноголосый любительский (Петр Титов)
Cубтитры: нет
Оригинальная аудиодорожка: английский
Режиссер: Стивен Рейнольдс/Stephen Reynolds
В ролях: Джонатан Гуд, Роджер Кросс, Дэниэл Кадмор, Локлин Манро, Тай Олссон, Сара Смит
Описание: Полицейский, который вернулся на службу оправившись от огнестрельного ранения, попадаёт опять в переплёт. Он обнаруживает улики незаконной деятельности своего бывшего партнера. Коррумпированные копы не остановятся ни перед чем, чтобы заполучить доказательства.
Сэмпл: https://www.sendspace.com/file/2loqq8
Качество видео: HDRip
Формат видео: AVI
Видео: Xvid 720x400 23.976fps, 1 768 Kbps
Аудио: MP3, 44100 Hz, 128 Kbps
Аудио 2: Dolby AC3 48000Hz 6ch 384kbps (Оригинал)

MediaInfo

General
Complete name : C:\скаченное\фильмы\12 раундов 3\12 раундов 3.avi
Format : AVI
Format/Info : Audio Video Interleave
File size : 1.45 GiB
Duration : 1h 30mn
Overall bit rate : 2 294 Kbps
Writing application : VirtualDubMod 1.5.10.2 (build 2540/release)
Writing library : VirtualDubMod build 2540/release
Video
ID : 0
Format : MPEG-4 Visual
Format profile : Advanced Simple@L5
Format settings, BVOP : 2
Format settings, QPel : No
Format settings, GMC : No warppoints
Format settings, Matrix : Default (H.263)
Muxing mode : Packed bitstream
Codec ID : XVID
Codec ID/Hint : XviD
Duration : 1h 30mn
Bit rate : 1 768 Kbps
Width : 720 pixels
Height : 400 pixels
Display aspect ratio : 16:9
Frame rate : 23.976 fps
Color space : YUV
Chroma subsampling : 4:2:0
Bit depth : 8 bits
Scan type : Progressive
Compression mode : Lossy
Bits/(Pixel*Frame) : 0.256
Stream size : 1.11 GiB (77%)
Writing library : XviD 66
Audio #1
ID : 1
Format : MPEG Audio
Format version : Version 1
Format profile : Layer 3
Codec ID : 55
Codec ID/Hint : MP3
Duration : 1h 30mn
Bit rate mode : Constant
Bit rate : 128 Kbps
Channel(s) : 2 channels
Sampling rate : 44.1 KHz
Compression mode : Lossy
Stream size : 82.6 MiB (6%)
Alignment : Split accross interleaves
Interleave, duration : 42 ms (1.00 video frame)
Interleave, preload duration : 500 ms
Audio #2
ID : 2
Format : AC-3
Format/Info : Audio Coding 3
Mode extension : CM (complete main)
Format settings, Endianness : Big
Codec ID : 2000
Duration : 1h 30mn
Bit rate mode : Constant
Bit rate : 384 Kbps
Channel(s) : 6 channels
Channel positions : Front: L C R, Side: L R, LFE
Sampling rate : 48.0 KHz
Bit depth : 16 bits
Compression mode : Lossy
Stream size : 248 MiB (17%)
Alignment : Aligned on interleaves
Interleave, duration : 42 ms (1.00 video frame)
Interleave, preload duration : 512 ms

Скриншот c названием фильма

Скриншоты

[Профиль] [ЛС]
Кто просматривает тему:

Показать сообщения:    

Текущее время: Сегодня 08:48

Часовой пояс: GMT



Вы не можете начинать темы
Вы не можете отвечать на сообщения
Вы не можете редактировать свои сообщения
Вы не можете удалять свои сообщения
Вы не можете голосовать в опросах
Вы не можете прикреплять файлы к сообщениям
Вы не можете скачивать файлы