12 месяцев. Новая сказка (2015) WEB-DLRip

 
Автор Сообщение

достали все ®

Пол:

Стаж: 1 год 8 месяцев

Сообщений: 6527



Награды: 12 (Подробнее)

Top Releaser 2 (Количество: 1) Mega Seeder 2 (Количество: 1) Top Releaser 4 (Количество: 1)
Торрент-статистика

Создавать темы 11-Апр-2015 18:26

[Цитировать]

Информация о фильме
Название: 12 месяцев. Новая сказка
Год выхода: 2015
Жанр: Фэнтези, сказка
Режиссёр: Денис Елеонский
В ролях: Сергей Друзьяк, Антон Юрьев, Анастасия Мельникова, Юлия Такшина, Евгений Воскресенский, Дмитрий Гогу, Владимир Кристовский, Андрей Федорцов, Юрий Гальцев, Андрей Леонов
О фильме:
Девочка из нашего времени попадает в сказочный мир. Среди зимы она должна принести из леса букет подснежников, чтобы наступил Новый Год, который решил отменить злой королевский советник. И только тогда она вернется к родителям.

Производство: Россия, Никола Фильм
Продолжительность: 01:24:01
Перевод: Не требуется
Файл
Кодек: XviD
Качество: WEB-DLRip
Видео: XviD, 1026 Кбит/с, 640x288 (2.222), 25 кадр/с
Звук: Русский, MP3, 48000 Гц, 128 Кбит/с, 2 канала (Стерео)
Субтитры: Нет

MediaInfo

General
Complete name : 12.mesyacev.Novaya.skazka.2015.WEB-DLRip.700MB.avi
Format : AVI
Format/Info : Audio Video Interleave
File size : 699 MiB
Duration : 1h 24mn
Overall bit rate : 1 164 Kbps
Writing application : VirtualDubMod 1.5.10.3 | www.virtualdub-fr.org || (build 2550/release)
Writing library : VirtualDubMod build 2550/release
Copyright : rip by ivandubskoj
Video
ID : 0
Format : MPEG-4 Visual
Format profile : Advanced Simple@L5
Format settings, BVOP : 1
Format settings, QPel : No
Format settings, GMC : No warppoints
Format settings, Matrix : Custom
Codec ID : XVID
Codec ID/Hint : XviD
Duration : 1h 24mn
Bit rate : 1 026 Kbps
Width : 640 pixels
Height : 288 pixels
Display aspect ratio : 2.222
Frame rate : 25.000 fps
Color space : YUV
Chroma subsampling : 4:2:0
Bit depth : 8 bits
Scan type : Progressive
Compression mode : Lossy
Bits/(Pixel*Frame) : 0.223
Stream size : 617 MiB (88%)
Writing library : XviD 73
Audio
ID : 1
Format : MPEG Audio
Format version : Version 1
Format profile : Layer 3
Codec ID : 55
Codec ID/Hint : MP3
Duration : 1h 24mn
Bit rate mode : Constant
Bit rate : 128 Kbps
Channel(s) : 2 channels
Sampling rate : 48.0 KHz
Compression mode : Lossy
Stream size : 76.9 MiB (11%)
Alignment : Aligned on interleaves
Interleave, duration : 40 ms (1.00 video frame)
Interleave, preload duration : 504 ms
Writing library : LAME3.99r
Encoding settings : -m s -V 4 -q 0 -lowpass 17 -b 128

Скриншоты


[Профиль] [ЛС]
Кто просматривает тему:

Показать сообщения:    

Текущее время: Сегодня 04:18

Часовой пояс: GMT



Вы не можете начинать темы
Вы не можете отвечать на сообщения
Вы не можете редактировать свои сообщения
Вы не можете удалять свои сообщения
Вы не можете голосовать в опросах
Вы не можете прикреплять файлы к сообщениям
Вы не можете скачивать файлы