12 лет рабства / 12 Years a Slave (Стив МакКуин / Steve McQueen) [2013, США, Великобритания, драма, биография, история, BDRip 720p] Dub + AVO (Сербин) + Sub Rus,Eng + Original Eng

 
Автор Сообщение

reversefile ®

Пол:

Стаж: 4 года 5 месяцев

Сообщений: 842

Откуда: ReverseFile.org



Награды: Нет

Торрент-статистика

Создавать темы 11-Авг-2014 10:40

[Цитировать]

12 лет рабства / 12 Years a Slave Страна: США, Великобритания
Студия: New Regency Pictures, Plan B Entertainment, River Road Entertainment
Жанр: драма, биография, история
Год выпуска: 2013
Продолжительность: 02:14:10
Перевод 1: Профессиональный (дублированный)BD RUS
Перевод 2: Авторский (одноголосый закадровый)Ю.Сербин
Cубтитры: русские,английские (Full + SDH + SDH-Colored)
Оригинальная аудиодорожка: английский
Режиссер: Стив МакКуин / Steve McQueen
В ролях: Чиветель Эджиофор, Майкл Фассбендер, Бенедикт Камбербэтч, Пол Дано, Пол Джаматти, Лупита Нионго, Сара Полсон, Брэд Питт, Элфри Вудард, Куавенжаней Уоллис
Описание: Соломон Нортап был женатым и образованным мужчиной, который жил и работал в Нью-Йорке, когда два человека однажды предложили ему привлекательную работу в Вашингтоне. По прибытии он был похищен, стал рабом и влачил жалкую жизнь, переходя от одного хозяина к другому.

Тип релиза: BDRip 720p[EbP]
Контейнер: MKV
Видео: AVC, 1280x534, 7417 kbps, 23.976 fps
Аудио 1: Russian: 48 kHz, AC3, 3/2 (L,C,R,l,r) + LFE ch, ~640.00 kbps avg |Blu-ray RUS|
Аудио 2: Russian: 48 kHz, AC3, 3/2 (L,C,R,l,r) + LFE ch, ~640.00 kbps avg |Сербин|
Аудио 3: English: 48 kHz, AC3, 3/2 (L,C,R,l,r) + LFE ch, ~640.00 kbps avg |Original|
Чаптеры:есть

x264 log

x264 [info]: frame I:1059 Avg QP:14.05 size:137372
x264 [info]: frame P:39294 Avg QP:15.77 size: 61220
x264 [info]: frame B:152655 Avg QP:16.59 size: 33240
x264 [info]: consecutive B-frames: 1.3% 1.8% 8.7% 15.8% 14.3% 42.5% 6.1% 2.2% 2.1% 2.0% 3.2%

MediaInfo

General
Unique ID : 196607326629942463235051818487272832138 (0x93E9319A88B8FF399545DDBC00DDFC8A)
Complete name : D:\рипы\12.Years.a.Slave.2013.720p.BluRay.DD5.1 x264-Talian-.mkv
Format : Matroska
Format version : Version 2
File size : 8.90 GiB
Duration : 2h 14mn
Overall bit rate : 9 501 Kbps
Movie name : -Talian-
Encoded date : UTC 2014-07-06 19:18:09
Writing application : mkvmerge v5.7.0 ('The Whirlwind') built on Jul 8 2012 20:08:51
Writing library : libebml v1.2.3 + libmatroska v1.3.0
Attachment : Yes / Yes
Video
ID : 1
Format : AVC
Format/Info : Advanced Video Codec
Format profile : High@L4.1
Format settings, CABAC : Yes
Format settings, ReFrames : 12 frames
Codec ID : V_MPEG4/ISO/AVC
Duration : 2h 14mn
Bit rate : 7 392 Kbps
Width : 1 280 pixels
Height : 534 pixels
Display aspect ratio : 2.40:1
Frame rate : 23.976 fps
Color space : YUV
Chroma subsampling : 4:2:0
Bit depth : 8 bits
Scan type : Progressive
Bits/(Pixel*Frame) : 0.451
Stream size : 6.93 GiB (78%)
Title : EbP
Writing library : x264 core 142 r2389kMod 956c8d8
Encoding settings : cabac=1 / ref=12 / deblock=1:-3:-3 / analyse=0x3:0x133 / me=umh / subme=10 / psy=1 / fade_compensate=0.00 / psy_rd=1.00:0.00 / mixed_ref=1 / me_range=32 / chroma_me=1 / trellis=2 / 8x8dct=1 / cqm=0 / deadzone=21,11 / fast_pskip=0 / chroma_qp_offset=-2 / threads=12 / lookahead_threads=3 / sliced_threads=0 / nr=0 / decimate=0 / interlaced=0 / bluray_compat=0 / constrained_intra=0 / fgo=0 / bframes=10 / b_pyramid=2 / b_adapt=2 / b_bias=0 / direct=3 / weightb=1 / open_gop=0 / weightp=2 / keyint=250 / keyint_min=23 / scenecut=40 / intra_refresh=0 / rc_lookahead=60 / rc=crf / mbtree=0 / crf=16.0000 / qcomp=0.65 / qpmin=0 / qpmax=69 / qpstep=4 / vbv_maxrate=62500 / vbv_bufsize=78125 / crf_max=0.0 / nal_hrd=none / filler=0 / ip_ratio=1.30 / pb_ratio=1.20 / aq=3:0.85
Language : English
Default : Yes
Forced : No
Audio #1
ID : 2
Format : AC-3
Format/Info : Audio Coding 3
Mode extension : CM (complete main)
Format settings, Endianness : Big
Codec ID : A_AC3
Duration : 2h 14mn
Bit rate mode : Constant
Bit rate : 640 Kbps
Channel(s) : 6 channels
Channel positions : Front: L C R, Side: L R, LFE
Sampling rate : 48.0 KHz
Bit depth : 16 bits
Compression mode : Lossy
Stream size : 614 MiB (7%)
Title : DUB-BD RUS
Language : Russian
Default : Yes
Forced : No
Audio #2
ID : 3
Format : AC-3
Format/Info : Audio Coding 3
Mode extension : CM (complete main)
Format settings, Endianness : Big
Codec ID : A_AC3
Duration : 2h 14mn
Bit rate mode : Constant
Bit rate : 640 Kbps
Channel(s) : 6 channels
Channel positions : Front: L C R, Side: L R, LFE
Sampling rate : 48.0 KHz
Bit depth : 16 bits
Compression mode : Lossy
Stream size : 614 MiB (7%)
Title : AVO-Сербин
Language : Russian
Default : No
Forced : No
Audio #3
ID : 4
Format : AC-3
Format/Info : Audio Coding 3
Mode extension : CM (complete main)
Format settings, Endianness : Big
Codec ID : A_AC3
Duration : 2h 14mn
Bit rate mode : Constant
Bit rate : 640 Kbps
Channel(s) : 6 channels
Channel positions : Front: L C R, Side: L R, LFE
Sampling rate : 48.0 KHz
Bit depth : 16 bits
Compression mode : Lossy
Stream size : 614 MiB (7%)
Title : Original
Language : English
Default : No
Forced : No
Text #1
ID : 5
Format : UTF-8
Codec ID : S_TEXT/UTF8
Codec ID/Info : UTF-8 Plain Text
Title : Sub
Language : Russian
Default : No
Forced : No
Text #2
ID : 6
Format : UTF-8
Codec ID : S_TEXT/UTF8
Codec ID/Info : UTF-8 Plain Text
Title : Sub-full
Language : English
Default : No
Forced : No
Text #3
ID : 7
Format : UTF-8
Codec ID : S_TEXT/UTF8
Codec ID/Info : UTF-8 Plain Text
Title : Sub-SDH
Language : English
Default : No
Forced : No
Text #4
ID : 8
Format : UTF-8
Codec ID : S_TEXT/UTF8
Codec ID/Info : UTF-8 Plain Text
Title : Sub-SDH-COLORED
Language : English
Default : No
Forced : No
Menu
00:00:00.000 : en:Chapter 1
00:06:02.862 : en:Chapter 2
00:10:13.529 : en:Chapter 3
00:12:58.778 : en:Chapter 4
00:16:24.650 : en:Chapter 5
00:19:18.866 : en:Chapter 6
00:25:01.708 : en:Chapter 7
00:27:48.458 : en:Chapter 8
00:32:07.967 : en:Chapter 9
00:36:07.874 : en:Chapter 10
00:39:39.126 : en:Chapter 11
00:45:16.714 : en:Chapter 12
00:47:36.144 : en:Chapter 13
00:52:26.977 : en:Chapter 14
00:54:34.187 : en:Chapter 15
00:59:34.028 : en:Chapter 16
01:01:47.704 : en:Chapter 17
01:06:04.543 : en:Chapter 18
01:09:55.691 : en:Chapter 19
01:12:47.988 : en:Chapter 20
01:15:27.689 : en:Chapter 21
01:18:31.873 : en:Chapter 22
01:21:08.488 : en:Chapter 23
01:23:46.688 : en:Chapter 24
01:26:25.972 : en:Chapter 25
01:28:18.876 : en:Chapter 26
01:31:22.518 : en:Chapter 27
01:34:10.144 : en:Chapter 28
01:38:14.013 : en:Chapter 29
01:41:50.312 : en:Chapter 30
01:45:18.895 : en:Chapter 31
01:53:09.908 : en:Chapter 32
01:54:46.504 : en:Chapter 33
02:00:22.215 : en:Chapter 34
02:04:07.398 : en:Chapter 35
02:07:25.721 : en:Chapter 36

Доп.информация

Перевод Ю.Сербина выполнен спонсорами ресурсов e180 и hdclub в рамках сервиса "Озвучивание". Меценаты hdclub: tambov68, gelom, Confidencе, Dervish, Ex1l, C_Vic, BillKlinton, Loki1982, Кириллка, RAUL, Skoped, pasha78, lex077, oldingt, aleks1988, kiruxazolo, bartalamyo

Скриншоты

Source vs Encode


[Профиль] [ЛС]
Кто просматривает тему:

Форум Тема Автор Размер
Фильмы 2013 года 12 лет рабства / 12 Years a Slave (2013) BDRip от HQ-ViDEO Russian Mafia 2.18 GB
Показать сообщения:    

Текущее время: Сегодня 05:16

Часовой пояс: GMT



Вы не можете начинать темы
Вы не можете отвечать на сообщения
Вы не можете редактировать свои сообщения
Вы не можете удалять свои сообщения
Вы не можете голосовать в опросах
Вы не можете прикреплять файлы к сообщениям
Вы не можете скачивать файлы