12-й человек / Den 12. mann (2017) BDRip 720p | L

 
Author Message

BOSS ®

Gender:

Longevity: 4 years 7 months

Posts: 14094

Location: ODESSA



: 22 ()

Mega Releaser 4 (1) Mega Seeder 5 (1) Mega Releaser 3 (1)
Торрент-статистика

Post 20-Jul-2018 16:23

[Quote]

12-й человек / The 12th Man / Den 12. mann
Страна: Норвегия
Производство: Nordisk Film Production AS, Zwart Arbeid
Год выпуска: 2017
Жанр: триллер, драма, военный, история
Продолжительность: 02:15:52
Режиссер: Харольд Цварт
Автор сценария: Петтер Скавлан
В ролях: Томас Гуллестад, Джонатан Риз Майерс, Мари Блокхус, Мадс Сьёгард Петтерсен, Вегар Хуль, Хокон Т. Нильсен, Эйрик Рисхольм Велле
Описание: Группа бойцов норвежского сопротивления получает задание добраться до северо-западного норвежского побережья на судне «Браттхольм» и совершить диверсию на одной из немецких авиационных баз. Но миссия потерпела фиаско еще в море: судно было атаковано немецким кораблем и потоплено. Единственным человеком, которому удалось спастись, оказался Ян Болсруд. Ему удается добраться до берега и бежать в сторону шведской границы. Преследуемый гестапо, Болсруд ищет убежище в горах. Здесь его настигает снежная буря, он прячется в пещере, которая оказывается смертельной ловушкой...

Перевод: Любительский (многоголосый, закадровый)
Субтитры: русские, английские-Качество: BDRip 720p
Формат: MKV
Видео кодек: AVC
Аудио кодек: AC3 | DTS
Видео: 1280x536 (2.40:1), 24.000 fps, MPEG-4 AVC ~5 114 kbps avg
Аудио №1: 48.0 kHz, AC3 Dolby Digital, 2/0 (L,R) ch, ~192 kbps | RUS / русский / МVO
Аудио №2: 48.0 kHz, Digital Theater Systems, 3/2 (L,C,R,l,r) + LFE ch, ~1509 | NOR / норвежский
Формат субтитров: UTF-8 Plain Text
Дата премьеры (мир): 25 декабря 2017
Дата премьеры (РФ): 24 апреля 2018-
Премия ММКФ, 2018 год
» Приз зрительских симпатий

Media Info

General
Unique ID : 63844558671410176458014115660445094115 (0x300803C58D2AC8D50B87AE48478190E3)
Complete name : The.12th.Man.2017.BDRip.720p.mkv
Format : Matroska
Format version : Version 4 / Version 2
File size : 6.47 GiB
Duration : 2 h 15 min
Overall bit rate : 6 817 kb/s
Encoded date : UTC 2018-07-18 10:46:09
Writing application : mkvmerge v20.0.0 ('I Am The Sun') 64-bit
Writing library : libebml v1.3.5 + libmatroska v1.4.8
Video
ID : 1
Format : AVC
Format/Info : Advanced Video Codec
Format profile : High@L4.1
Format settings : CABAC / 12 Ref Frames
Format settings, CABAC : Yes
Format settings, RefFrames : 12 frames
Codec ID : V_MPEG4/ISO/AVC
Duration : 2 h 15 min
Bit rate : 5 114 kb/s
Width : 1 280 pixels
Height : 536 pixels
Display aspect ratio : 2.40:1
Frame rate mode : Constant
Frame rate : 24.000 FPS
Color space : YUV
Chroma subsampling : 4:2:0
Bit depth : 8 bits
Scan type : Progressive
Bits/(Pixel*Frame) : 0.311
Stream size : 4.85 GiB (75%)
Writing library : x264 core 142 r2431+42 c69a006 tMod [8-bit@4:2:0 X86_64]
Encoding settings : cabac=1 / ref=12 / deblock=1:-3:-3 / analyse=0x3:0x113 / me=umh / subme=10 / psy=1 / fade_compensate=0.00 / psy_rd=1.00:0.05 / mixed_ref=1 / me_range=32 / chroma_me=1 / trellis=2 / 8x8dct=1 / cqm=0 / deadzone=21,11 / fast_pskip=0 / chroma_qp_offset=-2 / threads=48 / lookahead_threads=4 / sliced_threads=0 / nr=0 / decimate=1 / interlaced=0 / bluray_compat=0 / constrained_intra=0 / fgo=0 / bframes=8 / b_pyramid=2 / b_adapt=2 / b_bias=0 / direct=3 / weightb=1 / open_gop=0 / weightp=2 / keyint=250 / keyint_min=24 / scenecut=40 / intra_refresh=0 / rc=crf / mbtree=0 / crf=15.0000 / qcomp=0.60 / qpmin=0:0:0 / qpmax=69:69:69 / qpstep=4 / ip_ratio=1.40 / pb_ratio=1.30 / aq=3:0.80 / aq-sensitivity=10.00 / aq-factor=1.00:1.00:1.00 / aq2=0 / aq3=0
Language : English
Default : Yes
Forced : No
Color range : Limited
Matrix coefficients : BT.709
Audio #1
ID : 2
Format : AC-3
Format/Info : Audio Coding 3
Codec ID : A_AC3
Duration : 2 h 15 min
Bit rate mode : Constant
Bit rate : 192 kb/s
Channel(s) : 2 channels
Channel positions : Front: L R
Sampling rate : 48.0 kHz
Frame rate : 31.250 FPS (1536 SPF)
Bit depth : 16 bits
Compression mode : Lossy
Stream size : 186 MiB (3%)
Language : Russian
Service kind : Complete Main
Default : Yes
Forced : No
Audio #2
ID : 3
Format : DTS
Format/Info : Digital Theater Systems
Codec ID : A_DTS
Duration : 2 h 15 min
Bit rate mode : Constant
Bit rate : 1 509 kb/s
Channel(s) : 6 channels
Channel positions : Front: L C R, Side: L R, LFE
Sampling rate : 48.0 kHz
Frame rate : 93.750 FPS (512 SPF)
Bit depth : 24 bits
Compression mode : Lossy
Stream size : 1.43 GiB (22%)
Language : Norwegian
Default : No
Forced : No
Text #1
ID : 4
Format : UTF-8
Codec ID : S_TEXT/UTF8
Codec ID/Info : UTF-8 Plain Text
Duration : 2 h 9 min
Bit rate : 46 b/s
Count of elements : 857
Stream size : 44.2 KiB (0%)
Language : Russian
Default : No
Forced : No
Text #2
ID : 5
Format : UTF-8
Codec ID : S_TEXT/UTF8
Codec ID/Info : UTF-8 Plain Text
Duration : 2 h 9 min
Bit rate : 26 b/s
Count of elements : 851
Stream size : 24.8 KiB (0%)
Language : English
Default : No
Forced : No
Menu
00:00:00.000 : en:00:00:00.000
00:07:18.875 : en:00:07:18.875
00:11:51.250 : en:00:11:51.250
00:17:33.250 : en:00:17:33.250
00:22:43.292 : en:00:22:43.292
00:26:26.875 : en:00:26:26.875
00:35:22.750 : en:00:35:22.750
00:40:16.958 : en:00:40:16.958
00:48:44.208 : en:00:48:44.208
00:56:23.917 : en:00:56:23.917
01:02:54.083 : en:01:02:54.083
01:10:34.750 : en:01:10:34.750
01:16:44.208 : en:01:16:44.208
01:23:41.875 : en:01:23:41.875
01:30:26.833 : en:01:30:26.833
01:37:16.417 : en:01:37:16.417
01:43:03.125 : en:01:43:03.125
01:50:37.000 : en:01:50:37.000
01:56:37.750 : en:01:56:37.750
02:02:04.042 : en:02:02:04.042
02:09:39.042 : en:02:09:39.042

Скриншоты

[Profile] [PM]
Display posts from previous:    

The time now is: Today 05:41

All times are GMT



You cannot post new topics in this forum
You cannot reply to topics in this forum
You cannot edit your posts in this forum
You cannot delete your posts in this forum
You cannot vote in polls in this forum
You cannot attach files in this forum
You cannot download files in this forum