Шоу Мистико / O Grande Circo Mistico (2018) WEB-DLRip 720p | D

 
Author Message

Swager ®

Gender:

Longevity: 3 years 8 months

Posts: 2126



: 4 ()

Mega Seeder 2 (1) За внесенный вклад в развитие сайта (1) Mega Seeder 1 (1)
Торрент-статистика

Post 26-Sep-2018 10:41

[Quote]

Информация о фильме
Название: Шоу Мистико
Оригинальное название: O Grande Circo Mistico
Год выхода: 2018
Жанр: драма
Режиссер: Карлус Диегис
В ролях: Венсан Кассель (Jean-Paul), Мариана Шименес (Margarete), Нуно Лопеш , Антонио Фагундес (Dr. Frederico), Албану Жерониму (The Lion Tamer), Давид Огродник (Ludwig), Антонио де ла Крус (Homem-Fera), Жезуита Барбоза (Celavi), Рафаэль Лозаньо (Fred), Катрин Муше (Imperatriz), Бруна Линзмейер (Beatriz), Жулиану Казарре (Oto)
О фильме:
В мае 1910 года, когда над Землей пронеслась комета Галлея, молодой красавец доктор Фред Кипс без ума влюбился в акробатку Беатрис, вопреки воле родителей взял ее в жены и купил для нее цирк, назвав его «Гранд Мистико». Так начинается эта наполненная волшебством и эротикой история, в которую вовлечены фокусник и секс-гигант Жан-Поль, звероподобный силач Рудольфо, близняшки Мария и Елена, зарабатывающие интимными услугами и полетами под куполом цирка, и прочие удивительные герои. Идут годы — Первая мировая война, Вторая, человек ступает на Луну, рушится берлинская стена, комета Галлея пронеслась над Землей снова… И только в «Гранд Мистико», как и сто лет назад, каждый вечер вечно юный загадочный шпрехшталмейстер Селяви объявляет о начале представления. Шоу продолжается…

Страна: Бразилия, Португалия, Франция
Продолжительность: 01:44:50
Перевод: Дублированный [Официальный звук]
Файл
Качество: WEB-DLRip 720p
Формат: MKV
Видео кодек: AVC
Аудио кодек: AC3
Видео: 1280x572, 24fps, AVC, 3 790 kb/s
Звук: AC3, 320Kbps, 48.0 KHz, 2 ch | DUB [Официальный звук]
Субтитры: Нет
Релиз без рекламы!

МедиаИнфо

General
Unique ID : 298430782674207563041829463549011380745 (0xE083AD95DBEA7D8F122F6F1DE8D94A09)
Complete name : O.Grande.Circo.Mistico.web-dlrip.720p.Tapochek.mkv
Format : Matroska
Format version : Version 4 / Version 2
File size : 3.01 GiB
Duration : 1 h 44 min
Overall bit rate : 4 111 kb/s
Movie name : Tapochek
Encoded date : UTC 2018-09-26 07:05:54
Writing application : mkvmerge v26.0.0 ('In The Game') 64-bit
Writing library : libebml v1.3.6 + libmatroska v1.4.9 / Lavf57.71.100
Video
ID : 1
Format : AVC
Format/Info : Advanced Video Codec
Format profile : High@L4.1
Format settings, CABAC : Yes
Format settings, RefFrames : 4 frames
Codec ID : V_MPEG4/ISO/AVC
Duration : 1 h 44 min
Bit rate : 3 790 kb/s
Nominal bit rate : 4 000 kb/s
Width : 1 280 pixels
Height : 572 pixels
Display aspect ratio : 2.25:1
Frame rate mode : Constant
Frame rate : 24.000 FPS
Color space : YUV
Chroma subsampling : 4:2:0
Bit depth : 8 bits
Scan type : Progressive
Bits/(Pixel*Frame) : 0.216
Stream size : 2.77 GiB (92%)
Writing library : x264 core 155 r2901M 7d0ff22
Encoding settings : cabac=1 / ref=4 / deblock=1:0:0 / analyse=0x3:0x113 / me=umh / subme=9 / psy=1 / psy_rd=1.00:0.00 / mixed_ref=1 / me_range=16 / chroma_me=1 / trellis=2 / 8x8dct=1 / cqm=0 / deadzone=21,11 / fast_pskip=1 / chroma_qp_offset=-4 / threads=4 / lookahead_threads=3 / sliced_threads=0 / nr=0 / decimate=1 / interlaced=0 / bluray_compat=0 / constrained_intra=0 / bframes=3 / b_pyramid=2 / b_adapt=2 / b_bias=0 / direct=3 / weightb=1 / open_gop=0 / weightp=2 / keyint=250 / keyint_min=25 / scenecut=40 / intra_refresh=0 / rc_lookahead=50 / rc=abr / mbtree=1 / bitrate=4000 / ratetol=1.0 / qcomp=0.60 / qpmin=0 / qpmax=69 / qpstep=4 / ip_ratio=1.40 / aq=1:1.00
Language : English
Default : Yes
Forced : No
Audio
ID : 2
Format : AC-3
Format/Info : Audio Coding 3
Format settings, Endianness : Big
Codec ID : A_AC3
Duration : 1 h 44 min
Bit rate mode : Constant
Bit rate : 320 kb/s
Channel(s) : 2 channels
Channel positions : Front: L R
Sampling rate : 48.0 kHz
Frame rate : 31.250 FPS (1536 SPF)
Bit depth : 16 bits
Compression mode : Lossy
Stream size : 240 MiB (8%)
Title : Rus
Language : Russian
Service kind : Complete Main
Default : Yes
Forced : No

Скриншоты

[Profile] [PM]
Кто просматривает тему:

Display posts from previous:    

The time now is: Today 10:58

All times are GMT



You cannot post new topics in this forum
You cannot reply to topics in this forum
You cannot edit your posts in this forum
You cannot delete your posts in this forum
You cannot vote in polls in this forum
You cannot attach files in this forum
You cannot download files in this forum