Зои / Zoe (2018) WEB-DLRip от Portablius | iTunes

 
Author Message

Swager ®

Gender:

Longevity: 3 years 8 months

Posts: 2126



: 4 ()

За внесенный вклад в развитие сайта (1) Mega Seeder 1 (1) Top Releaser 2 (1)
Торрент-статистика

Post 25-Sep-2018 10:08

[Quote]

Информация о фильме
Название: Зои
Оригинальное название: Zoe
Год выхода: 2018
Жанр: Фантастика, мелодрама
Режиссер: Дрейк Доримус
В ролях: Юэн МакГрегор, Леа Сейду, Тео Джеймс, Рашида Джонс, Кристина Агилера, Миранда Отто, Энтони Шим, Donovan Colan, Мэттью Грей Гублер, Ричард Бримблкомб и др.
О фильме: Зои и Коул — ученые будущего, которые разрабатывают идеальных романтических партнеров — синтетиков. Их цель — избавить людей от одиночества и неразделенной любви. Но чем дальше они продвигаются в своих экспериментах, тем сомнительнее выглядят результаты их работы…
Страна: США
Продолжительность: 01:43:43
Перевод: Дублированный | iTunes
Субтитры: Нет
Файл
Кодек: XviD
Качество: WEB-DLRip
Видео: 720x304 (2.37:1), 23.976 fps, XviD build 73 ~868 kbps avg, 0.17 bit/pixel
Звук: 48 kHz, MPEG Layer 3, 2 ch, ~128.00 kbps avg

MediaInfo

General
Complete name : Zoe.2018.WEB-DLRip.ot.Portablius.avi
Format : AVI
Format/Info : Audio Video Interleave
File size : 746 MiB
Duration : 1 h 43 min
Overall bit rate : 1 006 kb/s
Writing application : VirtualDubMod 1.5.10.3 | www.virtualdub-fr.org || (build 2550/release)
Writing library : VirtualDubMod build 2550/release
Video
ID : 0
Format : MPEG-4 Visual
Format profile : Advanced Simple@L5
Format settings, BVOP : 1
Format settings, QPel : No
Format settings, GMC : No warppoints
Format settings, Matrix : Custom
Codec ID : XVID
Codec ID/Hint : XviD
Duration : 1 h 43 min
Bit rate : 869 kb/s
Width : 720 pixels
Height : 304 pixels
Display aspect ratio : 2.35:1
Frame rate : 23.976 (24000/1001) FPS
Color space : YUV
Chroma subsampling : 4:2:0
Bit depth : 8 bits
Scan type : Progressive
Compression mode : Lossy
Bits/(Pixel*Frame) : 0.166
Stream size : 644 MiB (86%)
Writing library : XviD 73
Audio
ID : 1
Format : MPEG Audio
Format version : Version 1
Format profile : Layer 3
Codec ID : 55
Codec ID/Hint : MP3
Duration : 1 h 43 min
Bit rate mode : Constant
Bit rate : 128 kb/s
Channel(s) : 2 channels
Sampling rate : 48.0 kHz
Compression mode : Lossy
Stream size : 94.9 MiB (13%)
Alignment : Aligned on interleaves
Interleave, duration : 42 ms (1.00 video frame)
Interleave, preload duratio : 504 ms
Writing library : LAME3.99r
Encoding settings : -m s -V 4 -q 2 -lowpass 17 -b 128

Скриншоты

[Profile] [PM]
Display posts from previous:    

The time now is: Today 10:58

All times are GMT



You cannot post new topics in this forum
You cannot reply to topics in this forum
You cannot edit your posts in this forum
You cannot delete your posts in this forum
You cannot vote in polls in this forum
You cannot attach files in this forum
You cannot download files in this forum