Оккупация / Occupation (2018) WEB-DLRip от Portablius | HDRezka Studio

 
Author Message

Swager ®

Gender:

Longevity: 3 years 10 months

Posts: 2126



: 4 ()

Mega Seeder 1 (1) Mega Seeder 2 (1) Top Releaser 2 (1)
Торрент-статистика

Post 24-Sep-2018 13:31

[Quote]

Информация о фильме
Название: Оккупация
Оригинальное название: Occupation
Год выхода: 2018
Жанр: Фантастика, боевик
Режиссер: Люк Спарк
В ролях: Дэниэл Юинг, Темуэра Моррисон, Стефани Джейкобсен, Рианнон Фиш, Захари Гарред, Иззи Стивенс, Чарльз Терьер, Чарльз Межер, Феликс Уильямсон, Жаклин МакКензи
О фильме: Небольшая группа жителей города, которая выжила после разрушительного внеземного вторжения, должна объединиться, чтобы нанести ответный удар по врагам.

Страна: Австралия
Студия: SparkeFilms History Design
Продолжительность: 01:59:57
Перевод: Профессиональный (многоголосый, закадровый) | HDRezka Studio
Субтитры: Нет
Файл
Кодек: XviD
Качество: WEB-DLRip
Видео: 688x288 (2.39:1), 23.976 fps, XviD build 73 ~732 kbps avg, 0.15 bit/pixel
Звук: 48 kHz, MPEG Layer 3, 2 ch, ~128.00 kbps avg

MediaInfo

General
Complete name : Occupation.2018.WEB-DLRip.ot.Portablius.avi
Format : AVI
Format/Info : Audio Video Interleave
File size : 746 MiB
Duration : 1 h 59 min
Overall bit rate : 870 kb/s
Writing application : VirtualDubMod 1.5.10.3 | www.virtualdub-fr.org || (build 2550/release)
Writing library : VirtualDubMod build 2550/release
Video
ID : 0
Format : MPEG-4 Visual
Format profile : Advanced Simple@L5
Format settings, BVOP : 1
Format settings, QPel : No
Format settings, GMC : No warppoints
Format settings, Matrix : Custom
Codec ID : XVID
Codec ID/Hint : XviD
Duration : 1 h 59 min
Bit rate : 733 kb/s
Width : 688 pixels
Height : 288 pixels
Display aspect ratio : 2.40:1
Frame rate : 23.976 (24000/1001) FPS
Color space : YUV
Chroma subsampling : 4:2:0
Bit depth : 8 bits
Scan type : Progressive
Compression mode : Lossy
Bits/(Pixel*Frame) : 0.154
Stream size : 629 MiB (84%)
Writing library : XviD 73
Audio
ID : 1
Format : MPEG Audio
Format version : Version 1
Format profile : Layer 3
Codec ID : 55
Codec ID/Hint : MP3
Duration : 1 h 59 min
Bit rate mode : Constant
Bit rate : 128 kb/s
Channel(s) : 2 channels
Sampling rate : 48.0 kHz
Compression mode : Lossy
Stream size : 110 MiB (15%)
Alignment : Aligned on interleaves
Interleave, duration : 42 ms (1.00 video frame)
Interleave, preload duratio : 504 ms
Writing library : LAME3.99r
Encoding settings : -m s -V 4 -q 2 -lowpass 17 -b 128

Скриншоты

[Profile] [PM]
Display posts from previous:    

The time now is: Today 11:31

All times are GMT



You cannot post new topics in this forum
You cannot reply to topics in this forum
You cannot edit your posts in this forum
You cannot delete your posts in this forum
You cannot vote in polls in this forum
You cannot attach files in this forum
You cannot download files in this forum