(Melodic Heavy Metal) Axel Rudi Pell - Knights Call - 2018 [FLAC, image +.cue, lossless]

 
Author Message

sergej644 ®

Gender:

Longevity: 7 years 7 months

Posts: 7276

Location: Klaipeda



: 9 ()

Mega Seeder 5 (1) Mega Seeder 1 (1) Mega Seeder 2 (1)
Торрент-статистика

Post 21-Sep-2018 09:40

[Quote]

-Axel Rudi Pell - Knights Call--
Год издания: 2018
Страна: Germany
Жанр: Melodic Heavy Metal
Продолжительность: 00:58:12-Лейбл издания: Steamhammer
Страна-выпуска диска: Germany
Номер по каталогу: SPV 285090 CD-Формат: FLAC
Битрейт аудио: Lossless
Тип рипа: image +.cue
Наличие сканов в содержимом раздачи: да
-

Трэклист


01. The Medieval Overture (Intro) (1:43)
02. The Wild And The Young (4:21)
03. Wildest Dreams (5:43)
04. Long Live Rock (5:34)
05. The Crusaders Of Doom (8:01)
06. Truth And Lies (4:48)
07. Beyond The Light (7:45)
08. Slaves On The Run (5:13)
09. Follow The Sun (5:13)
10. Tower Of Babylon (9:50)
-

Лог создания рипа

Exact Audio Copy V1.3 from 2. September 2016
EAC extraction logfile from 23. March 2018, 18:01
Axel Rudi Pell / Knights Call
Used drive  : ATAPI   iHAS122   W   Adapter: 2  ID: 0
Read mode               : Secure
Utilize accurate stream : Yes
Defeat audio cache      : Yes
Make use of C2 pointers : No
Read offset correction                      : 48
Overread into Lead-In and Lead-Out          : No
Fill up missing offset samples with silence : Yes
Delete leading and trailing silent blocks   : No
Null samples used in CRC calculations       : Yes
Used interface                              : Installed external ASPI interface
Used output format              : User Defined Encoder
Selected bitrate                : 1024 kBit/s
Quality                         : High
Add ID3 tag                     : No
Command line compressor         : C:\Program Files\FLAC\flac.exe
Additional command line options : -V -8 -T "Date=%year%" -T "Genre=%genre%" -T"COMMENT=Ripped by  Ilijan [MeTaLMaDNeSS.TeaM]" -8 -V %source%
TOC of the extracted CD
     Track |   Start  |  Length  | Start sector | End sector
    ---------------------------------------------------------
        1  |  0:00.00 |  1:43.21 |         0    |     7745
        2  |  1:43.21 |  4:21.27 |      7746    |    27347
        3  |  6:04.48 |  5:43.12 |     27348    |    53084
        4  | 11:47.60 |  5:34.23 |     53085    |    78157
        5  | 17:22.08 |  8:00.67 |     78158    |   114224
        6  | 25:23.00 |  4:48.28 |    114225    |   135852
        7  | 30:11.28 |  7:45.29 |    135853    |   170756
        8  | 37:56.57 |  5:12.57 |    170757    |   194213
        9  | 43:09.39 |  5:12.56 |    194214    |   217669
       10  | 48:22.20 |  9:49.70 |    217670    |   261914
Range status and errors
Selected range
     Filename D:\Vknish + Devastator + ungern666 = Swolo4 (Download, Upload On Rutracker, DIE!!!)\Axel Rudi Pell - Knights Call.wav
     Peak level 89.1 %
     Extraction speed 4.0 X
     Range quality 100.0 %
     Test CRC 671E3100
     Copy CRC 671E3100
     Copy OK
No errors occurred
AccurateRip summary
Track  1  not present in database
Track  2  not present in database
Track  3  not present in database
Track  4  not present in database
Track  5  not present in database
Track  6  not present in database
Track  7  not present in database
Track  8  not present in database
Track  9  not present in database
Track 10  not present in database
None of the tracks are present in the AccurateRip database
End of status report

Индексная карта (non-compilant .cue)

REM GENRE Melodic Heavy/Power Metal
REM DATE 2018
REM DISCID 7D0DA40A
REM COMMENT ExactAudioCopy v1.3
PERFORMER "Axel Rudi Pell"
TITLE "Knights Call"
FILE "Axel Rudi Pell - Knights Call.flac" WAVE
  TRACK 01 AUDIO
    TITLE "The Medieval Overture (Intro)"
    INDEX 01 00:00:00
  TRACK 02 AUDIO
    TITLE "The Wild And The Young"
    INDEX 01 01:43:21
  TRACK 03 AUDIO
    TITLE "Wildest Dreams"
    INDEX 00 03:55:73
    INDEX 01 06:04:48
  TRACK 04 AUDIO
    TITLE "Long Live Rock"
    INDEX 01 11:47:60
  TRACK 05 AUDIO
    TITLE "The Crusaders Of Doom"
    INDEX 01 17:22:08
  TRACK 06 AUDIO
    TITLE "Truth And Lies"
    INDEX 01 25:23:00
  TRACK 07 AUDIO
    TITLE "Beyond The Light"
    INDEX 01 30:11:28
  TRACK 08 AUDIO
    TITLE "Slaves On The Run"
    INDEX 01 37:56:57
  TRACK 09 AUDIO
    TITLE "Follow The Sun"
    INDEX 01 43:09:39
  TRACK 10 AUDIO
    TITLE "Tower Of Babylon"
    INDEX 00 48:21:32
    INDEX 01 48:22:20
-

для ознакомления:

https://www.youtube.com/watch?v=3tLsZa7wk6Q
--
[Profile] [PM]
Display posts from previous:    

The time now is: Today 14:59

All times are GMT



You cannot post new topics in this forum
You cannot reply to topics in this forum
You cannot edit your posts in this forum
You cannot delete your posts in this forum
You cannot vote in polls in this forum
You cannot attach files in this forum
You cannot download files in this forum