(Power Metal) Astral Doors - Black Eyed Children (Limited Edition) - 2017 [FLAC, image +.cue, lossless]

 
Author Message

sergej644 ®

Gender:

Longevity: 7 years 4 months

Posts: 7276

Location: Klaipeda



: 9 ()

Top Seeder 3 (1) Mega Seeder 3 (1) Mega Seeder 1 (1)
Торрент-статистика

Post 04-Sep-2018 12:49

[Quote]

-Astral Doors - Black Eyed Children (Limited Edition)--
Год издания: 2017
Страна: Sweden
Жанр: Power Metal
Продолжительность: 00:55:45-Лейбл издания: Metalville
Страна-выпуска диска: Germany
Номер по каталогу: MV0133-L-Формат: FLAC
Битрейт аудио: Lossless
Тип рипа: image +.cue
Наличие сканов в содержимом раздачи: да
-

Трэклист


01. We Cry Out (4:37)
02. Walls (4:13)
03. God Is The Devil (4:57)
04. Die On Stage (5:07)
05. Tomorrow's Dead (4:59)
06. Good Vs. Bad (4:29)
07. Suburban Song (5:06)
08. Lost Boy (4:47)
09. Slaves To Ourselves (4:21)
10. Black Eyed Children (8:46)
11. Jesus Christ Moviestar (Bonus Track) (4:24)
-

Лог создания рипа

Exact Audio Copy V1.1 from 23. June 2015
EAC extraction logfile from 3. May 2017, 11:27
Astral Doors / Black Eyed Children (Limited Edition)
Used drive  : HP      DVD Writer 1170d   Adapter: 1  ID: 1
Read mode               : Secure
Utilize accurate stream : Yes
Defeat audio cache      : Yes
Make use of C2 pointers : No
Read offset correction                      : 6
Overread into Lead-In and Lead-Out          : No
Fill up missing offset samples with silence : Yes
Delete leading and trailing silent blocks   : No
Null samples used in CRC calculations       : Yes
Used interface                              : Native Win32 interface for Win NT & 2000
Used output format              : User Defined Encoder
Selected bitrate                : 1024 kBit/s
Quality                         : High
Add ID3 tag                     : No
Command line compressor         : C:\Program Files (x86)\Exact Audio Copy\Flac\flac.exe
Additional command line options : -V -8 -T "Date=%year%" -T "Genre=%genre%" %source%
TOC of the extracted CD
     Track |   Start  |  Length  | Start sector | End sector
    ---------------------------------------------------------
        1  |  0:00.00 |  4:36.64 |         0    |    20763
        2  |  4:36.64 |  4:12.62 |     20764    |    39725
        3  |  8:49.51 |  4:56.41 |     39726    |    61966
        4  | 13:46.17 |  5:06.71 |     61967    |    84987
        5  | 18:53.13 |  4:58.64 |     84988    |   107401
        6  | 23:52.02 |  4:29.03 |    107402    |   127579
        7  | 28:21.05 |  5:06.16 |    127580    |   150545
        8  | 33:27.21 |  4:47.04 |    150546    |   172074
        9  | 38:14.25 |  4:21.00 |    172075    |   191649
       10  | 42:35.25 |  8:45.39 |    191650    |   231063
       11  | 51:20.64 |  4:24.17 |    231064    |   250880
Range status and errors
Selected range
     Filename C:\EAC\Ungern666\Astral Doors - Black Eyed Children (Limited Edition).wav
     Peak level 94.4 %
     Extraction speed 7.1 X
     Range quality 100.0 %
     Test CRC 94E909C6
     Copy CRC 94E909C6
     Copy OK
No errors occurred
AccurateRip summary
Track  1  not present in database
Track  2  not present in database
Track  3  not present in database
Track  4  not present in database
Track  5  not present in database
Track  6  not present in database
Track  7  not present in database
Track  8  not present in database
Track  9  not present in database
Track 10  not present in database
Track 11  not present in database
None of the tracks are present in the AccurateRip database
End of status report

Индексная карта (non-compilant .cue)

REM DATE 2017
REM DISCID 8D0D110B
REM COMMENT "ExactAudioCopy v1.1"
PERFORMER "Astral Doors"
TITLE "Black Eyed Children (Limited Edition)"
FILE "Astral Doors - Black Eyed Children (Limited Edition).flac" WAVE
  TRACK 01 AUDIO
    TITLE "We Cry Out"
    PERFORMER "Astral Doors"
    INDEX 01 00:00:00
  TRACK 02 AUDIO
    TITLE "Walls"
    PERFORMER "Astral Doors"
    INDEX 01 04:36:64
  TRACK 03 AUDIO
    TITLE "God Is The Devil"
    PERFORMER "Astral Doors"
    INDEX 01 08:49:51
  TRACK 04 AUDIO
    TITLE "Die On Stage"
    PERFORMER "Astral Doors"
    INDEX 01 13:46:17
  TRACK 05 AUDIO
    TITLE "Tomorrow's Dead"
    PERFORMER "Astral Doors"
    INDEX 01 18:53:13
  TRACK 06 AUDIO
    TITLE "Good Vs. Bad"
    PERFORMER "Astral Doors"
    INDEX 01 23:52:02
  TRACK 07 AUDIO
    TITLE "Suburban Song"
    PERFORMER "Astral Doors"
    INDEX 01 28:21:05
  TRACK 08 AUDIO
    TITLE "Lost Boy"
    PERFORMER "Astral Doors"
    INDEX 01 33:27:21
  TRACK 09 AUDIO
    TITLE "Slaves To Ourselves"
    PERFORMER "Astral Doors"
    INDEX 01 38:14:25
  TRACK 10 AUDIO
    TITLE "Black Eyed Children"
    PERFORMER "Astral Doors"
    INDEX 01 42:35:25
  TRACK 11 AUDIO
    TITLE "Jesus Christ Moviestar (Bonus Track)"
    PERFORMER "Astral Doors"
    INDEX 01 51:20:64
-

для ознакомления:

https://www.youtube.com/watch?v=gfXFeFdREcY
--
[Profile] [PM]
Display posts from previous:    

The time now is: Today 05:21

All times are GMT



You cannot post new topics in this forum
You cannot reply to topics in this forum
You cannot edit your posts in this forum
You cannot delete your posts in this forum
You cannot vote in polls in this forum
You cannot attach files in this forum
You cannot download files in this forum