Лицо / Twarz (2018) WEB-DL 1080p | iTunes

 
Автор Сообщение

BOSS ®

Пол:

Стаж: 3 года 11 месяцев

Сообщений: 11860

Откуда: ODESSA



Награды: 22 (Подробнее)

Mega Seeder 1 (Количество: 1) Top Seeder 3 (Количество: 1) Mega Releaser 4 (Количество: 1)
Торрент-статистика

Создавать темы 11-Июл-2018 16:24

[Цитировать]

Информация о фильме
Название: Лицо
Оригинальное название: Twarz
Год выхода: 2018
Жанр: Драма, комедия
Режиссер: Малгожата Шумовска
В ролях: Матеуш Косьцюкевич, Агнешка Подсядлик, Мальгожата Гороль, Роман Ганцарчик, Дариуш Хойнацкий, Роберт Таларчик, Анна Томашевская, Мартына Кшиштофик, Ивона Бельска
О фильме: Все любят красавчика Яцека, а Яцек любит рок и свою собаку. Он трудится на возведении самой высокой в мире статуи Иисуса Христа, а по вечерам зажигает на танцполе с любимой девушкой. Однажды Яцек получает серьезную травму и чудом спасается, правда врачи пересаживают ему чужое лицо. Эта операция делает Яцека настоящим национальным героем, только вот с новым лицом трудно смириться и его окружению, и ему самому.-
Страна: Польша
Студия: DI Factory, Dreamsound Studio, Kino Swiat
Продолжительность: 01:31:28
Перевод: Профессиональный, многоголосый, закадровый ~ iTunes
Файл
Кодек: MPEG-4 AVC
Качество: WEB-DL 1080p
Видео: 1920x804, 4644kb/s, 24.000fps
Звук:
1] 384kb/s, 6ch, 48000kHz, AC3 [RUS] | iTunes
2] 125kb/s, 2ch, 48000kHz, AAC [RUS] | iTunes
Субтитры: Отсутствуют

MI

Формат : Matroska
Версия формата : Version 4 / Version 2
Размер файла : 3,29 Гбайт
Продолжительность : 1 ч. 31 м.
Общий поток : 5156 Кбит/сек
Название фильма : Twarz.2018.WEB-DL.1080p-ylnian
Дата кодирования : UTC 2018-07-10 16:42:45
Программа кодирования : mkvmerge v24.0.0 ('Beyond The Pale') 64-bit
Библиотека кодирования : libebml v1.3.6 + libmatroska v1.4.9
Видео
Идентификатор : 1
Формат : AVC
Формат/Информация : Advanced Video Codec
Профиль формата : High@L4
Настройки формата : CABAC / 5 Ref Frames
Параметр CABAC формата : Да
Параметр RefFrames формата : 5 кадров
Идентификатор кодека : V_MPEG4/ISO/AVC
Продолжительность : 1 ч. 31 м.
Битрейт : 4644 Кбит/сек
Ширина : 1920 пикселей
Высота : 804 пикселя
Соотношение сторон : 2,40:1
Режим частоты кадров : Постоянный
Частота кадров : 24,000 кадра/сек
Цветовое пространство : YUV
Субдискретизация насыщенности : 4:2:0
Битовая глубина : 8 бит
Тип развёртки : Прогрессивная
Бит/(Пиксели*Кадры) : 0.125
Размер потока : 2,97 Гбайт (90%)
Язык : Polish
Default : Да
Forced : Да
Цветовой диапазон : Limited
Основные цвета : BT.709
Характеристики трансфера : BT.709
Коэффициенты матрицы : BT.709
Аудио #1
Идентификатор : 2
Формат : AC-3
Формат/Информация : Audio Coding 3
Идентификатор кодека : A_AC3
Продолжительность : 1 ч. 31 м.
Вид битрейта : Постоянный
Битрейт : 384 Кбит/сек
Каналы : 6 каналов
Расположение каналов : Front: L C R, Side: L R, LFE
Частота : 48,0 КГц
Частота кадров : 31,250 кадров/сек (1536 SPF)
Битовая глубина : 16 бит
Метод сжатия : С потерями
Размер потока : 251 Мбайт (7%)
Язык : Russian
Default : Да
Forced : Да
Аудио #2
Идентификатор : 3
Формат : AAC
Формат/Информация : Advanced Audio Codec
Профиль формата : LC
Идентификатор кодека : A_AAC-2
Продолжительность : 1 ч. 31 м.
Битрейт : 125 Кбит/сек
Каналы : 2 канала
Расположение каналов : Front: L R
Частота : 48,0 КГц
Частота кадров : 46,875 кадров/сек (1024 SPF)
Метод сжатия : С потерями
Размер потока : 82,0 Мбайт (2%)
Язык : Russian
Default : Нет
Forced : Нет
[Профиль] [ЛС]
Показать сообщения:    

Текущее время: Сегодня 22:11

Часовой пояс: GMT



Вы не можете начинать темы
Вы не можете отвечать на сообщения
Вы не можете редактировать свои сообщения
Вы не можете удалять свои сообщения
Вы не можете голосовать в опросах
Вы не можете прикреплять файлы к сообщениям
Вы не можете скачивать файлы