Дом призраков / Ghost House (2017) WEB-DL 1080p | D

 
Автор Сообщение

BOSS ®

Пол:

Стаж: 3 года 9 месяцев

Сообщений: 11149

Откуда: ODESSA



Награды: 22 (Подробнее)

Top Seeder 5 (Количество: 1) Top Keeper 4 (Количество: 1) Top Keeper 2 (Количество: 1)
Торрент-статистика

Создавать темы 10-Июл-2018 18:37

[Цитировать]

Информация о фильме
Название: Дом призраков
Оригинальное название: Ghost House
Год выхода: 2017
Жанр: Ужасы, триллер
Режиссер: Рич Рэгсдэйл
В ролях: Скаут Тейлор-Комптон, Джеймс Хеберт, Марк Бун Джуниор, Расселл Джеффри Бэнкс, Рич Ли Грэй, Элана Крауш, Кевин Рэгсдэйл, Ян Вэньчу, Майкл С. Нью, Катрина Грэй
О фильме:
Молодая пара отправляется в путешествие в Таиланд. В сельской местности они обнаруживают кладбище с находящимися на нём «домами призраков», где, по местным верованиями, духи обретают покой. Имевших неосторожность осквернить святыню, влюблённых начинает преследовать жестокая сверхъестественная сила. Она погружает героев в пучину леденящего ужаса потустороннего мира, из которого нет выхода...

Страна: Таиланд, США
Студия: KNR Productions, Benetone Films, Benetone Hillin Entertainment
Продолжительность: 01:39:54
Перевод: профессиональный (дублированный) | Лицензия «Cinema Prestige»
Файл
Кодек: AVC
Качество: WEB-DL 1080p
Видео: MPEG-4 AVC, 1920x792, 4594 Kбит/с, 23.976 кадр/с
Звук:
Аудио #1: Русский ( АС3, 6ch, 448 Кбит/с, 48.0 KHz) Профессиональный (полное дублирование) «Cinema Prestige»
Аудио #2: Английский ( AC3, 6ch, 448 Кбит/с, 48.0 KHz)
Субтитры: английские

MediaInfo

General
Unique ID : 247263510489841564089642892368094426738 (0xBA05384B69072109A58F84F61857F672)
Complete name : Ghost.House.2017.WEB-DL.1080p.mkv
Format : Matroska
Format version : Version 4 / Version 2
File size : 3.74 GiB
Duration : 1 h 39 min
Overall bit rate : 5 364 kb/s
Encoded date : UTC 2018-07-10 00:11:01
Writing application : mkvmerge v7.1.0 ('Good Love') 64bit built on Jul 27 2014 13:06:55
Writing library : libebml v1.3.0 + libmatroska v1.4.1
Video
ID : 1
Format : AVC
Format/Info : Advanced Video Codec
Format profile : High@L4
Format settings : CABAC / 5 Ref Frames
Format settings, CABAC : Yes
Format settings, ReFrames : 5 frames
Codec ID : V_MPEG4/ISO/AVC
Duration : 1 h 39 min
Bit rate : 4 594 kb/s
Width : 1 920 pixels
Height : 792 pixels
Display aspect ratio : 2.40:1
Frame rate mode : Constant
Frame rate : 23.976 (24000/1001) FPS
Color space : YUV
Chroma subsampling : 4:2:0
Bit depth : 8 bits
Scan type : Progressive
Bits/(Pixel*Frame) : 0.126
Stream size : 3.21 GiB (86%)
Language : English
Default : Yes
Forced : No
Color range : Limited
Color primaries : BT.709
Transfer characteristics : BT.709
Matrix coefficients : BT.709
Audio #1
ID : 2
Format : AC-3
Format/Info : Audio Coding 3
Codec ID : A_AC3
Duration : 1 h 39 min
Bit rate mode : Constant
Bit rate : 384 kb/s
Channel(s) : 6 channels
Channel positions : Front: L C R, Side: L R, LFE
Sampling rate : 48.0 kHz
Frame rate : 31.250 FPS (1536 SPF)
Bit depth : 16 bits
Compression mode : Lossy
Stream size : 274 MiB (7%)
Language : Russian
Service kind : Complete Main
Default : Yes
Forced : No
Audio #2
ID : 3
Format : AC-3
Format/Info : Audio Coding 3
Codec ID : A_AC3
Duration : 1 h 39 min
Bit rate mode : Constant
Bit rate : 384 kb/s
Channel(s) : 6 channels
Channel positions : Front: L C R, Side: L R, LFE
Sampling rate : 48.0 kHz
Frame rate : 31.250 FPS (1536 SPF)
Bit depth : 16 bits
Compression mode : Lossy
Stream size : 274 MiB (7%)
Language : English
Service kind : Complete Main
Default : No
Forced : No
Text
ID : 4
Format : UTF-8
Codec ID : S_TEXT/UTF8
Codec ID/Info : UTF-8 Plain Text
Duration : 1 h 32 min
Bit rate : 32 b/s
Count of elements : 908
Stream size : 21.9 KiB (0%)
Language : English
Default : No
Forced : No
Menu
00:00:00.000 : en:01
00:06:02.070 : en:02
00:12:54.315 : en:03
00:18:40.285 : en:04
00:25:00.081 : en:05
00:32:24.817 : en:06
00:38:54.498 : en:07
00:44:10.773 : en:08
00:50:24.354 : en:09
00:57:15.056 : en:10
01:04:01.796 : en:11
01:09:29.248 : en:12
01:15:49.753 : en:13
01:22:47.796 : en:14
01:27:38.670 : en:15
01:34:44.345 : en:16

Скриншоты

[Профиль] [ЛС]
Кто просматривает тему:

Показать сообщения:    

Текущее время: Сегодня 22:00

Часовой пояс: GMT



Вы не можете начинать темы
Вы не можете отвечать на сообщения
Вы не можете редактировать свои сообщения
Вы не можете удалять свои сообщения
Вы не можете голосовать в опросах
Вы не можете прикреплять файлы к сообщениям
Вы не можете скачивать файлы