Бесит быть нормальным / Mad to Be Normal (2017) WEBRip 720p | GreenРай Studio

 
Автор Сообщение

BOSS ®

Пол:

Стаж: 3 года 9 месяцев

Сообщений: 11149

Откуда: ODESSA



Награды: 22 (Подробнее)

Top Releaser 2 (Количество: 1) За внесенный вклад в развитие сайта (Количество: 1) Mega Releaser 1 (Количество: 1)
Торрент-статистика

Создавать темы 10-Июл-2018 18:32

[Цитировать]

Информация о фильме
Год выхода: 2017
Наименование: Бесит быть нормальным
Оригинальное наименование: Mad to Be Normal
Страна: Великобритания
Жанр: драма, биография, история
Режиссер постановщик: Роберт Маллан
В главных ролях: Элизабет Мосс, Дэвид Теннант, Майкл Гэмбон, Гэбриел Бирн, Дэвид Бамбер, Тревор Уайт, Оливия Пуле, Дэвид Эннэн, Джером Холдер, Зак Холлэнд
О фильме: 60-е годы ХХ века. Р. Д. Лэйнг - шотландский психиатр, который возмущён тем, как его коллеги по цеху относятся к своим пациентам: клиники-тюрьмы, принудительное лечение, электрошок. Он открывает собственный центр в большом доме в восточном Лондоне, где разрабатывает новые способы работы с больными: групповая терапия, совместные разговоры, никакого насилия и лекарств (хотя врачебные дозы ЛСД никому не помешают). Профессиональное сообщество же смотрит на доктора так, словно он основал странный и потенциально опасный культ.

Файл
Качество: WEBRip 720p
Видео данные: MKV, 1280x544 (2.35:1), 23.976 fps, 3471 Кбит/с
Аудио данные: AC3, 2 ch, 448 Кбит/с
Перевод: Любительский многоголосый (GreenРай Studio)
Продолжительность: 01:46:19

Медиаинфо

General
Unique ID : 197095087638269780777601733379461443621 (0x94472213FBA8AB80867DBF99874F7025)
Complete name : E:ГРИНРАЙMad.to.Be.Normal.2017.P.WEB-DL.720p.mkv
Format : Matroska
Format version : Version 4 / Version 2
File size : 2.91 GiB
Duration : 1 h 46 min
Overall bit rate : 3 921 kb/s
Encoded date : UTC 2018-07-09 19:39:50
Writing application : mkvmerge v8.3.0 ('Over the Horizon') 64bit
Writing library : libebml v1.3.1 + libmatroska v1.4.2
Video
ID : 1
Format : AVC
Format/Info : Advanced Video Codec
Format profile : High@L3.1
Format settings : CABAC / 4 Ref Frames
Format settings, CABAC : Yes
Format settings, RefFrames : 4 frames
Codec ID : V_MPEG4/ISO/AVC
Duration : 1 h 46 min
Bit rate : 3 471 kb/s
Width : 1 280 pixels
Height : 544 pixels
Display aspect ratio : 2.35:1
Frame rate mode : Constant
Frame rate : 23.976 FPS
Color space : YUV
Chroma subsampling : 4:2:0
Bit depth : 8 bits
Scan type : Progressive
Bits/(Pixel*Frame) : 0.208
Stream size : 2.58 GiB (89%)
Writing library : x264 core 146 r2538 121396c
Encoding settings : cabac=1 / ref=1 / deblock=1:0:0 / analyse=0x3:0x113 / me=hex / subme=2 / psy=1 / psy_rd=1.00:0.00 / mixed_ref=0 / me_range=16 / chroma_me=1 / trellis=0 / 8x8dct=1 / cqm=0 / deadzone=21,11 / fast_pskip=1 / chroma_qp_offset=0 / threads=18 / lookahead_threads=4 / sliced_threads=0 / nr=0 / decimate=1 / interlaced=0 / bluray_compat=0 / constrained_intra=0 / bframes=3 / b_pyramid=2 / b_adapt=1 / b_bias=0 / direct=1 / weightb=1 / open_gop=0 / weightp=1 / keyint=250 / keyint_min=23 / scenecut=40 / intra_refresh=0 / rc_lookahead=10 / rc=crf / mbtree=1 / crf=13.9 / qcomp=0.60 / qpmin=0 / qpmax=69 / qpstep=4 / ip_ratio=1.40 / aq=1:1.00
Language : English
Default : Yes
Forced : No
Audio
ID : 2
Format : AC-3
Format/Info : Audio Coding 3
Codec ID : A_AC3
Duration : 1 h 46 min
Bit rate mode : Constant
Bit rate : 448 kb/s
Channel(s) : 2 channels
Channel positions : Front: L R
Sampling rate : 48.0 kHz
Frame rate : 31.250 FPS (1536 SPF)
Bit depth : 16 bits
Compression mode : Lossy
Stream size : 341 MiB (11%)
Service kind : Complete Main
Default : Yes
Forced : No
Внимание, имеется видео и аудио реклама от спонсора показа

Скриншоты

Релиз от:
[Профиль] [ЛС]
Показать сообщения:    

Текущее время: Сегодня 21:59

Часовой пояс: GMT



Вы не можете начинать темы
Вы не можете отвечать на сообщения
Вы не можете редактировать свои сообщения
Вы не можете удалять свои сообщения
Вы не можете голосовать в опросах
Вы не можете прикреплять файлы к сообщениям
Вы не можете скачивать файлы