Чаппакуиддик / Chappaquiddick (2017) BDRip 720p | Sub

 
Автор Сообщение

BOSS ®

Пол:

Стаж: 3 года 11 месяцев

Сообщений: 11860

Откуда: ODESSA



Награды: 22 (Подробнее)

Mega Seeder 5 (Количество: 1) Top Releaser 2 (Количество: 1) За внесенный вклад в развитие сайта (Количество: 1)
Торрент-статистика

Создавать темы 08-Июл-2018 14:52

[Цитировать]

Информация о фильме
Название: Чаппакуиддик
Оригинальное название: Chappaquiddick
Год выхода: 2017
Жанр: Триллер, драма, история
Режиссер: Джон Кёрран
В ролях: Джейсон Кларк, Эд Хелмс, Джим Гэффиган, Кейт Мара, Брюс Дерн, Джон Фиоре, Джиллиан Маринер Гордон, Оливия Тирлби, Кэти Хенох, Лекси Рот
О фильме:
Жизнь и политическая карьера Теда Кеннеди рушится после того, как он, покинув вечеринку в нетрезвом состоянии с Мэри Джо Копечне, съехал с моста и его машина опрокинулась в воду. Герой смог спастись, но его спутница так и не смогла выбраться из автомобиля.

Страна: Швеция, США
Студия: Apex Entertainment, Chimney, DMG Entertainment
Продолжительность: 01:46:51
Перевод: Субтитры (MenInSub)
Файл
Кодек: MPEG-4 AVC
Качество: BDRip 720p
Видео: 4353 Kбит/с, 1280x536, 23.976 fps
Звук: Английский (DTS, 6 ch, 1509 Кбит/с)
Субтитры: Русские (софт), английские (софт).

Скриншоты

Mediainfo

C:UsersUserVideosChappaquiddick.2017.720p.BluRay.MenInSubchappaquiddick.2017.720p.bluray.MenInSub.mkv
General
Unique ID : 130308297979326001257904676904101925663 (0x6208771E6DB15711D752D96D4982D31F)
Complete name : C:UsersUserVideosChappaquiddick.2017.720p.BluRay.MenInSubchappaquiddick.2017.720p.bluray.MenInSub.mkv
Format : Matroska
Format version : Version 4 / Version 2
File size : 4.37 GiB
Duration : 1 h 46 min
Overall bit rate : 5 861 kb/s
Encoded date : UTC 2018-06-29 17:23:38
Writing application : mkvmerge v24.0.0 ('Beyond The Pale') 64-bit
Writing library : libebml v1.3.6 + libmatroska v1.4.9
Video #1
ID : 1
Format : AVC
Format/Info : Advanced Video Codec
Format profile : High@L4.1
Format settings, CABAC : Yes
Format settings, ReFrames : 5 frames
Codec ID : V_MPEG4/ISO/AVC
Duration : 1 h 46 min
Bit rate : 4 353 kb/s
Width : 1 280 pixels
Height : 536 pixels
Display aspect ratio : 2.40:1
Frame rate mode : Constant
Frame rate : 23.976 (24000/1001) FPS
Color space : YUV
Chroma subsampling : 4:2:0
Bit depth : 8 bits
Scan type : Progressive
Bits/(Pixel*Frame) : 0.265
Stream size : 3.24 GiB (74%)
Writing library : x264 core 155 r2901 7d0ff22
Encoding settings : cabac=1 / ref=5 / deblock=1:0:0 / analyse=0x3:0x133 / me=umh / subme=7 / psy=1 / psy_rd=1.00:0.00 / mixed_ref=1 / me_range=16 / chroma_me=1 / trellis=1 / 8x8dct=1 / cqm=0 / deadzone=21,11 / fast_pskip=0 / chroma_qp_offset=-2 / threads=17 / lookahead_threads=2 / sliced_threads=0 / nr=0 / decimate=1 / interlaced=0 / bluray_compat=0 / constrained_intra=0 / bframes=3 / b_pyramid=2 / b_adapt=1 / b_bias=0 / direct=1 / weightb=1 / open_gop=0 / weightp=2 / keyint=250 / keyint_min=23 / scenecut=40 / intra_refresh=0 / rc_lookahead=40 / rc=2pass / mbtree=1 / bitrate=4353 / ratetol=1.0 / qcomp=0.60 / qpmin=0 / qpmax=69 / qpstep=4 / cplxblur=20.0 / qblur=0.5 / ip_ratio=1.40 / aq=1:1.00
Language : English
Default : Yes
Forced : No
Audio #2
ID : 2
Format : DTS
Format/Info : Digital Theater Systems
Mode : 16
Format settings, Endianness : Big
Codec ID : A_DTS
Duration : 1 h 46 min
Bit rate mode : Constant
Bit rate : 1 509 kb/s
Channel(s) : 6 channels
Channel positions : Front: L C R, Side: L R, LFE
Sampling rate : 48.0 kHz
Frame rate : 93.750 FPS (512 spf)
Bit depth : 24 bits
Compression mode : Lossy
Stream size : 1.12 GiB (26%)
Language : English
Default : Yes
Forced : No
Релиз от: Men In Sub
[Профиль] [ЛС]
Показать сообщения:    

Текущее время: Сегодня 22:11

Часовой пояс: GMT



Вы не можете начинать темы
Вы не можете отвечать на сообщения
Вы не можете редактировать свои сообщения
Вы не можете удалять свои сообщения
Вы не можете голосовать в опросах
Вы не можете прикреплять файлы к сообщениям
Вы не можете скачивать файлы