Зависимость / The Addiction (1995) BDRip 1080p | P2

 
Автор Сообщение

BOSS ®

Пол:

Стаж: 4 года 1 месяц

Сообщений: 12442

Откуда: ODESSA



Награды: 22 (Подробнее)

Top Seeder 3 (Количество: 1) Top Keeper 4 (Количество: 1) Mega Releaser 1 (Количество: 1)
Торрент-статистика

Создавать темы 08-Июл-2018 14:48

[Цитировать]

Название: Зависимость
Оригинальное название: The Addiction
Год выпуска: 1995
Жанр: Ужасы, драма, вампиры
Выпущено: США, Аргентина, Fast Films, Guild, October Films
Режиссер: Абель Феррара
В ролях: Лили Тейлор, Кристофер Уокен, Аннабелла Шиорра, Иди Фалко, Пол Кэлдерон, Фредро Старр, Кэтрин Эрбе, Майкл Империоли, Джамал Симмонс, Майкл Фелла
О фильме: Молодая студентка философского факультета подвергается нападению вампирши прямо на улице. Разумеется, сразу после этого в организме и сознании ее начинают происходить необратимые перемены. Но что интересно: интеллектуальный потенциал девушки только растет, новые способности позволяют ей защитить диссертацию. Однако вечеринка по поводу защиты превращается в кровавую оргию…

Автор рипа - Атлас31
Качество: BDRip (1080p)
Видео: MPEG-4 AVC, 11500 Кбит/с, 1920x1036
Аудио 1: Русский (АС3, 6 ch, 384 Кбит/с)
Аудио 2: Английский (DTS, 6 ch, 768 Кбит/с)
Размер: 7.27 ГБ
Продолжительность: 01:22:22
Перевод: Профессиональный многоголосый
Субтитры: Русские, английские

MediaInfo

General
Unique ID : 240180956979813694889094897185745601113 (0xB4B12B723D36AE12990581292B910259)
Format : Matroska
Format version : Version 2
File size : 7.27 GiB
Duration : 1h 22mn
Overall bit rate : 12.6 Mbps
Movie name : The.Addiction.1995.1080p.BluRay.x264.-=Атлас31=-
Encoded date : UTC 2018-07-08 12:11:05
Writing application : mkvmerge v7.8.0 ('River Man') 32bit built on Apr 3 2015 12:11:22
Writing library : libebml v1.3.1 + libmatroska v1.4.2
Attachements : small_cover.jpg / small_cover_land.jpg / cover.jpg / cover_land.jpg
Video
ID : 1
Format : AVC
Format/Info : Advanced Video Codec
Format profile : High@L4.1
Format settings, CABAC : Yes
Format settings, ReFrames : 4 frames
Codec ID : V_MPEG4/ISO/AVC
Duration : 1h 22mn
Bit rate : 11.5 Mbps
Width : 1 920 pixels
Height : 1 036 pixels
Display aspect ratio : 1.85:1
Frame rate mode : Constant
Frame rate : 23.976 fps
Color space : YUV
Chroma subsampling : 4:2:0
Bit depth : 8 bits
Scan type : Progressive
Bits/(Pixel*Frame) : 0.241
Stream size : 6.47 GiB (89%)
Title : -=Атлас31=-
Writing library : x264 core 148 r2795M aaa9aa8
Encoding settings : cabac=1 / ref=4 / deblock=1:-2:-2 / analyse=0x3:0x113 / me=umh / subme=9 / psy=1 / psy_rd=1.00:0.15 / mixed_ref=1 / me_range=16 / chroma_me=1 / trellis=2 / 8x8dct=1 / cqm=0 / deadzone=21,11 / fast_pskip=1 / chroma_qp_offset=-3 / threads=24 / lookahead_threads=3 / sliced_threads=0 / nr=0 / decimate=1 / interlaced=0 / bluray_compat=0 / constrained_intra=0 / bframes=3 / b_pyramid=2 / b_adapt=1 / b_bias=0 / direct=3 / weightb=1 / open_gop=0 / weightp=2 / keyint=250 / keyint_min=25 / scenecut=40 / intra_refresh=0 / rc_lookahead=50 / rc=2pass / mbtree=1 / bitrate=11500 / ratetol=1.0 / qcomp=0.60 / qpmin=0 / qpmax=69 / qpstep=4 / cplxblur=20.0 / qblur=0.5 / vbv_maxrate=31250 / vbv_bufsize=31250 / nal_hrd=none / filler=0 / ip_ratio=1.40 / aq=1:1.00
Language : English
Default : Yes
Forced : No
Audio #1
ID : 2
Format : AC-3
Format/Info : Audio Coding 3
Mode extension : CM (complete main)
Format settings, Endianness : Big
Codec ID : A_AC3
Duration : 1h 22mn
Bit rate mode : Constant
Bit rate : 384 Kbps
Channel(s) : 6 channels
Channel positions : Front: L C R, Side: L R, LFE
Sampling rate : 48.0 KHz
Bit depth : 16 bits
Compression mode : Lossy
Stream size : 226 MiB (3%)
Title : DVO
Language : Russian
Default : Yes
Forced : No
Audio #2
ID : 3
Format : DTS
Format/Info : Digital Theater Systems
Mode : 16
Format settings, Endianness : Big
Codec ID : A_DTS
Duration : 1h 22mn
Bit rate mode : Constant
Bit rate : 768 Kbps
Channel(s) : 6 channels
Channel positions : Front: L C R, Side: L R, LFE
Sampling rate : 48.0 KHz
Bit depth : 24 bits
Compression mode : Lossy
Stream size : 452 MiB (6%)
Language : English
Default : No
Forced : No
Text #1
ID : 4
Format : UTF-8
Codec ID : S_TEXT/UTF8
Codec ID/Info : UTF-8 Plain Text
Language : Russian
Default : No
Forced : No
Text #2
ID : 5
Format : UTF-8
Codec ID : S_TEXT/UTF8
Codec ID/Info : UTF-8 Plain Text
Language : English
Default : No
Forced : No
Menu
00:00:00.000 : en:Chapter 01
00:07:41.752 : en:Chapter 02
00:13:41.195 : en:Chapter 03
00:19:58.822 : en:Chapter 04
00:26:52.027 : en:Chapter 05
00:34:34.739 : en:Chapter 06
00:42:18.285 : en:Chapter 07
00:47:20.963 : en:Chapter 08
00:56:05.111 : en:Chapter 09
01:02:44.218 : en:Chapter 10
01:11:04.051 : en:Chapter 11
01:15:45.374 : en:Chapter 12

Скриншоты


[Профиль] [ЛС]
Кто просматривает тему:

Форум Тема Автор Размер
Зарубежные сериалы Боб Сервант, независимый кандидат / Bob Servant Independent [s01] (2013) WebRip 720p от Brazzass Белочка 3.6 GB
Фильмы 2017 года День зависимых / Independence Day: Resurgence (2017) HDRip | Смешной перевод BOSS 1.17 GB
Ultra HD (UHD: 2K,4K, 8K) — видео сверхвысокой чёткости День независимости / Independence Day (1996) UHD BDRemux 2160p | 4K | HDR | Расширенная версия | P, A Swager 49.69 GB
Фильмы 2016 года День независимости / Independents' Day (2016) WEB-DLRip | L достали все 1.37 GB
Фильмы (HD DVD, Blu-ray и BDRemux) День независимости: Возрождение / Independence Day: Resurgence (2016) BDRemux 1080p | D, A BOSS 36.3 GB
Ultra HD (UHD: 2K,4K, 8K) — видео сверхвысокой чёткости День независимости: Возрождение / Independence Day: Resurgence (2016) BDRemux 2160p от ExKinoRay | 4K | HDR | D, A | Лицензия Swager 36.49 GB
Фильмы (HD Rips | 720p, 1080p) День независимости: Возрождение / Independence Day: Resurgence (2016) BDRip 1080p от ExKinoRay | Лицензия Russian Mafia 11.48 GB
Фильмы (HD Rips | 720p, 1080p) День независимости: Возрождение / Independence Day: Resurgence (2016) BDRip 1080p от New-Team & qqss44 | Лицензия Russian Mafia 7.74 GB
Показать сообщения:    

Текущее время: Сегодня 12:29

Часовой пояс: GMT



Вы не можете начинать темы
Вы не можете отвечать на сообщения
Вы не можете редактировать свои сообщения
Вы не можете удалять свои сообщения
Вы не можете голосовать в опросах
Вы не можете прикреплять файлы к сообщениям
Вы не можете скачивать файлы