Призрак в сети / Ghost Machine (2009) BDRip 1080p | P

 
Автор Сообщение

BOSS ®

Пол:

Стаж: 3 года 9 месяцев

Сообщений: 11123

Откуда: ODESSA



Награды: 22 (Подробнее)

Top Seeder 3 (Количество: 1) Mega Seeder 5 (Количество: 1) Top Releaser 3 (Количество: 1)
Торрент-статистика

Создавать темы 08-Июл-2018 14:48

[Цитировать]

Информация о фильме
Название: Призрак в сети
Оригинальное название: Ghost Machine
Год выхода: 2009
Жанр: Фантастика, триллер, боевик
Режиссер: Крис Хартвилл
В ролях: Шон Фэрис, Рэйчел Тейлор, Люк Форд, Ричард Дормер, Джонатан Харден, Сэм Корри, Халла Вильялмсдоттир, Дженни Маршалл, Джоэнна Робинсон, Джошуа Даллас...
О фильме:
Увлечение компьютерными играми привело группу юношей и девушек в бывшую тюрьму для военных. Это место имело плохую репутацию — поговаривали, что в застенках от страшных пыток погибло немало людей. Спустя несколько лет тюрьма превратилась в полигон для 3D игр-стрелялок. В один из боев, в момент перехода на новый уровень, в системе происходит сбой, и игра становится реальностью. Теперь главный враг юнитов — призрак из прошлого…

Страна: Великобритания
Студия: Generator Entertainment
Продолжительность: 01:32:12
Перевод: Профессиональный многоголосый | [Лицензия]
Файл
Кодек: x.264
Качество: BDRip 1080p
Видео: MPEG-4 AVC, 1920x816, 8670 Kбит/с, 23.976 кадр/с
Звук:
Аудио #1: Русский ( AC3, 6ch, 448 Кбит/с, 48.0 KHz) Профессиональный (многоголосый, закадровый) Лицензия R5
Аудио #2: Английский ( AC3, 6ch, 448 Кбит/с, 48.0 KHz)
Субтитры: нет

MediaInfo

Источник: Ghost.Machine.2008.1080p.BluRay.x264-LCHD
General
Unique ID : 227751683819692073782335793158499672650 (0xAB5760F76AF45F13A7E4B2FF3579224A)
Complete name : Ghost.Machine.2009.BDRip.1080p.mkv
Format : Matroska
Format version : Version 4 / Version 2
File size : 6.16 GiB
Duration : 1 h 32 min
Overall bit rate : 9 559 kb/s
Encoded date : UTC 2018-07-08 10:55:39
Writing application : mkvmerge v7.1.0 ('Good Love') 64bit built on Jul 27 2014 13:06:55
Writing library : libebml v1.3.0 + libmatroska v1.4.1
Video
ID : 1
Format : AVC
Format/Info : Advanced Video Codec
Format profile : High@L4.1
Format settings : CABAC / 5 Ref Frames
Format settings, CABAC : Yes
Format settings, ReFrames : 5 frames
Codec ID : V_MPEG4/ISO/AVC
Duration : 1 h 32 min
Bit rate : 8 670 kb/s
Width : 1 920 pixels
Height : 816 pixels
Display aspect ratio : 2.35:1
Frame rate mode : Constant
Frame rate : 23.976 (24000/1001) FPS
Color space : YUV
Chroma subsampling : 4:2:0
Bit depth : 8 bits
Scan type : Progressive
Bits/(Pixel*Frame) : 0.231
Stream size : 5.58 GiB (91%)
Writing library : x264 core 104 r1713 c276662
Encoding settings : cabac=1 / ref=5 / deblock=1:-1:-1 / analyse=0x3:0x113 / me=umh / subme=7 / psy=1 / psy_rd=1.00:0.00 / mixed_ref=1 / me_range=16 / chroma_me=1 / trellis=1 / 8x8dct=1 / cqm=0 / deadzone=21,11 / fast_pskip=1 / chroma_qp_offset=-2 / threads=6 / sliced_threads=0 / nr=0 / decimate=1 / interlaced=0 / constrained_intra=0 / bframes=3 / b_pyramid=2 / b_adapt=2 / b_bias=0 / direct=3 / weightb=1 / open_gop=0 / weightp=2 / keyint=250 / keyint_min=23 / scenecut=40 / intra_refresh=0 / rc_lookahead=40 / rc=2pass / mbtree=1 / bitrate=8670 / ratetol=1.0 / qcomp=0.60 / qpmin=10 / qpmax=51 / qpstep=4 / cplxblur=20.0 / qblur=0.5 / vbv_maxrate=50000 / vbv_bufsize=50000 / ip_ratio=1.40 / aq=1:1.00 / nal_hrd=none
Language : English
Default : Yes
Forced : No
Audio #1
ID : 2
Format : AC-3
Format/Info : Audio Coding 3
Codec ID : A_AC3
Duration : 1 h 32 min
Bit rate mode : Constant
Bit rate : 448 kb/s
Channel(s) : 6 channels
Channel positions : Front: L C R, Side: L R, LFE
Sampling rate : 48.0 kHz
Frame rate : 31.250 FPS (1536 SPF)
Bit depth : 16 bits
Compression mode : Lossy
Stream size : 295 MiB (5%)
Language : Russian
Service kind : Complete Main
Default : Yes
Forced : No
Audio #2
ID : 3
Format : AC-3
Format/Info : Audio Coding 3
Codec ID : A_AC3
Duration : 1 h 32 min
Bit rate mode : Constant
Bit rate : 448 kb/s
Channel(s) : 6 channels
Channel positions : Front: L C R, Side: L R, LFE
Sampling rate : 48.0 kHz
Frame rate : 31.250 FPS (1536 SPF)
Bit depth : 16 bits
Compression mode : Lossy
Stream size : 295 MiB (5%)
Language : English
Service kind : Complete Main
Default : No
Forced : No
Menu
00:00:00.000 : en:00:00:00.000
00:07:00.712 : en:00:07:00.712
00:11:11.337 : en:00:11:11.337
00:17:56.701 : en:00:17:56.701
00:21:42.676 : en:00:21:42.676
00:26:06.732 : en:00:26:06.732
00:30:21.445 : en:00:30:21.445
00:33:51.488 : en:00:33:51.488
00:38:01.488 : en:00:38:01.488
00:40:59.749 : en:00:40:59.749
00:44:07.562 : en:00:44:07.562
00:49:22.710 : en:00:49:22.710
00:51:54.403 : en:00:51:54.403
00:56:39.938 : en:00:56:39.938
01:00:44.057 : en:01:00:44.057
01:05:12.826 : en:01:05:12.826
01:08:46.039 : en:01:08:46.039
01:14:24.085 : en:01:14:24.085
01:18:42.384 : en:01:18:42.384
01:26:39.403 : en:01:26:39.403

Скриншоты

[Профиль] [ЛС]
Кто просматривает тему:

Форум Тема Автор Размер
BBC BBC: Мир природы. Андские медведи – призраки леса / The Natural World. Spectacled Bears [сезон 27 эпизод 13] (Fergus Beeley, Angel Garcia-Rojo) [2008 г., Документальный, научно-популярный,... skorpionN 1.49 GB
Фильмы (HD Rips | 720p, 1080p) Cнайпер: воин призрак / Sniper: Ghost Shooter (2016) WEB-DL 720p | iTunes достали все 3.11 GB
Фильмы 2016 года Cнайпер: воин призрак / Sniper: Ghost Shooter (2016) WEB-DLRip | iTunes достали все 746 MB
Фильмы (HD Rips | 720p, 1080p) Cпайпер: воин призрак / Sniper: Ghost Shooter (2016) WEB-DL 1080p | iTunes достали все 3.83 GB
S.T.A.L.K.E.R. S.T.A.L.K.E.R.: Call of Pripyat - Призраки прошлого v1.6.02 (2015/RUS/RePack by SeregA-Lus) (2015) (SoR — TeaM) (ENG+RUS) [RePack] Richi Keeper 2.86 GB
Фантастика и фэнтези Белянин Андрей, Черная Галина - Детектив из Мокрых Псов 3. Отель «У призрака» (2015) MP3 Swager 419 MB
Фильмы 2011 года Возвращение в дом ночных призраков / Return to House on Haunted Hill (Виктор Гарсия / Víctor García) [2007, США, ужасы, триллер, BDRip] MVO (ТНТ) + Original Eng TorrentFilm 1.45 GB
Индийское кино Возвращение призрака / Bhoot Returns / ИНДИЯ (Рам Гопал Варма) [2012 г., Ужасы, DVDRip] Magnat 746 MB
Показать сообщения:    

Текущее время: Сегодня 20:01

Часовой пояс: GMT



Вы не можете начинать темы
Вы не можете отвечать на сообщения
Вы не можете редактировать свои сообщения
Вы не можете удалять свои сообщения
Вы не можете голосовать в опросах
Вы не можете прикреплять файлы к сообщениям
Вы не можете скачивать файлы