Парк Горького / Gorky Park (1983) BDRip 720p | P2, A1

 
Автор Сообщение

Swager ®

Пол:

Стаж: 2 года 11 месяцев

Сообщений: 1690



Награды: 4 (Подробнее)

За внесенный вклад в развитие сайта (Количество: 1) Top Releaser 2 (Количество: 1) Mega Seeder 2 (Количество: 1)
Торрент-статистика

Создавать темы 08-Июл-2018 06:58

[Цитировать]

Информация о фильме
Год выпуска: 1983
Жанр: триллер, драма, криминал
Режиссер: Майкл Эптид
В ролях: Уильям Хёрт, Ли Марвин, Джоанна Пакула, Иэн Бэннен, Брайан Деннехи, Ричард Гриффитс, Александр Нокс, Рикки Фултон, Майкл Элфик
Описание:
В Москве, в парке имени Горького, находят три трупа с изуродованными до неузнаваемости лицами и удаленными пальцами. Следователь Аркадий Ренко получает задание: установить личность убитых и найти убийцу. Мало-помалу обстоятельства дела проясняются, и улики все явственнее указывают на причастность к убийству КГБ. У бывалого оперативника возникает сильное искушение — закрыть дело. Но вскоре он узнает, что к убийству причастна и его любимая женщина, Ирина Асанова. Преследуемый КГБ, преодолевая сети обмана и предательства, тянущиеся к самой вершине политического Олимпа, Ренко решает не останавливатьсяни перед чем и привлечь убийц к суду — даже ценой собственной судьбы и любви.

Выпущено: США
Перевод (1): Профессиональный (двухголосый закадровый)
Перевод (2): Авторский (одноголосый закадровый) - Г. Либергал
Перевод (3): Авторский (одноголосый закадровый) - А. Марченко
Субтитры: нет
Продолжительность: 02:08:51
Файл
Качество: BDRip 720p
Контейнер: MKV
Видео: 1280x692, MPEG-4 AVC Video, 23.976 fps, 5203 kbps
Аудио№1: Russian: 48 kHz, АС3, 2 ch, 192 kbps [двухголосый]
Аудио№2: Russian: 48 kHz, АС3, 2 ch, 192 kbps [одноголосый, Либергал]
Аудио№3: Russian: 48 kHz, АС3, 2 ch, 192 kbps [одноголосый, Марченко]
Аудио№4: English: 48 kHz, АС3, 2 ch, 192 kbps [оригинал]--

M/I

General
Unique ID : 203061191348160932330163043286910791406 (0x98C429B38DFF52D69D21231D74BC6EEE)
Complete name : D:КИНОGorky.Park.(1983).BDRip-720p [-=DoMiNo=-].mkv
Format : Matroska
Format version : Version 4 / Version 2
File size : 5.37 GiB
Duration : 2h 8mn
Overall bit rate : 5 971 Kbps
Movie name : Gorky Park (1983) BDRip-720p -=DoMiNo=-
Encoded date : UTC 2014-10-22 13:11:50
Writing application : mkvmerge v7.2.0 ('On Every Street') 64bit built on Sep 13 2014 15:52:10
Writing library : libebml v1.3.0 + libmatroska v1.4.1
DURATION : 02:08:40.992000000
NUMBER_OF_FRAMES : 241281
NUMBER_OF_BYTES : 185303808
_STATISTICS_WRITING_APP : mkvmerge v7.2.0 ('On Every Street') 64bit built on Sep 13 2014 15:52:10
_STATISTICS_WRITING_DATE_UTC : 2014-10-22 13:11:50
_STATISTICS_TAGS : BPS DURATION NUMBER_OF_FRAMES NUMBER_OF_BYTES
Video
ID : 1
Format : AVC
Format/Info : Advanced Video Codec
Format profile : High@L4.1
Format settings, CABAC : Yes
Format settings, ReFrames : 8 frames
Codec ID : V_MPEG4/ISO/AVC
Duration : 2h 8mn
Bit rate : 5 203 Kbps
Width : 1 280 pixels
Height : 692 pixels
Display aspect ratio : 1.85:1
Frame rate mode : Constant
Frame rate : 23.976 fps
Color space : YUV
Chroma subsampling : 4:2:0
Bit depth : 8 bits
Scan type : Progressive
Bits/(Pixel*Frame) : 0.245
Stream size : 4.57 GiB (85%)
Writing library : x264 core 130 r2273 b3065e6
Encoding settings : cabac=1 / ref=8 / deblock=1:-3:-3 / analyse=0x3:0x133 / me=umh / subme=11 / psy=1 / psy_rd=1.00:0.50 / mixed_ref=1 / me_range=48 / chroma_me=1 / trellis=2 / 8x8dct=1 / cqm=0 / deadzone=21,11 / fast_pskip=0 / chroma_qp_offset=-3 / threads=12 / lookahead_threads=2 / sliced_threads=0 / slices=4 / nr=0 / decimate=1 / interlaced=0 / bluray_compat=0 / constrained_intra=0 / bframes=9 / b_pyramid=2 / b_adapt=2 / b_bias=0 / direct=3 / weightb=1 / open_gop=0 / weightp=2 / keyint=250 / keyint_min=23 / scenecut=40 / intra_refresh=0 / rc=2pass / mbtree=0 / bitrate=5203 / ratetol=1.0 / qcomp=0.70 / qpmin=0 / qpmax=69 / qpstep=4 / cplxblur=20.0 / qblur=0.5 / ip_ratio=1.40 / pb_ratio=1.30 / aq=1:1.50
Language : English
Default : Yes
Forced : No
Audio #1
ID : 2
Format : AC-3
Format/Info : Audio Coding 3
Mode extension : CM (complete main)
Format settings, Endianness : Big
Codec ID : A_AC3
Duration : 2h 8mn
Bit rate mode : Constant
Bit rate : 192 Kbps
Channel(s) : 2 channels
Channel positions : Front: L R
Sampling rate : 48.0 KHz
Bit depth : 16 bits
Compression mode : Lossy
Stream size : 177 MiB (3%)
Title : двухголосый
Language : Russian
Default : Yes
Forced : No
Audio #2
ID : 3
Format : AC-3
Format/Info : Audio Coding 3
Mode extension : CM (complete main)
Format settings, Endianness : Big
Codec ID : A_AC3
Duration : 2h 8mn
Bit rate mode : Constant
Bit rate : 192 Kbps
Channel(s) : 2 channels
Channel positions : Front: L R
Sampling rate : 48.0 KHz
Bit depth : 16 bits
Compression mode : Lossy
Stream size : 177 MiB (3%)
Title : одноголосый, Либергал
Language : Russian
Default : No
Forced : No
Audio #3
ID : 4
Format : AC-3
Format/Info : Audio Coding 3
Mode extension : CM (complete main)
Format settings, Endianness : Big
Codec ID : A_AC3
Duration : 2h 8mn
Bit rate mode : Constant
Bit rate : 192 Kbps
Channel(s) : 2 channels
Channel positions : Front: L R
Sampling rate : 48.0 KHz
Bit depth : 16 bits
Compression mode : Lossy
Stream size : 177 MiB (3%)
Title : одноголосый, Марченко
Language : Russian
Default : No
Forced : No
Audio #4
ID : 5
Format : AC-3
Format/Info : Audio Coding 3
Mode extension : CM (complete main)
Format settings, Endianness : Big
Codec ID : A_AC3
Duration : 2h 8mn
Bit rate mode : Constant
Bit rate : 192 Kbps
Channel(s) : 2 channels
Channel positions : Front: L R
Sampling rate : 48.0 KHz
Bit depth : 16 bits
Compression mode : Lossy
Stream size : 177 MiB (3%)
Title : English
Language : English
Default : No
Forced : No
--

Скриншоты

--
[Профиль] [ЛС]
Кто просматривает тему:

Показать сообщения:    

Текущее время: Сегодня 22:10

Часовой пояс: GMT



Вы не можете начинать темы
Вы не можете отвечать на сообщения
Вы не можете редактировать свои сообщения
Вы не можете удалять свои сообщения
Вы не можете голосовать в опросах
Вы не можете прикреплять файлы к сообщениям
Вы не можете скачивать файлы