Ужасающий / Terrifier (2017) BDRip 1080p | L1

 
Автор Сообщение

BOSS ®

Пол:

Стаж: 3 года 11 месяцев

Сообщений: 11860

Откуда: ODESSA



Награды: 22 (Подробнее)

Top Seeder 4 (Количество: 1) Mega Seeder 1 (Количество: 1) Top Seeder 2 (Количество: 1)
Торрент-статистика

Создавать темы 08-Июл-2018 05:10

[Цитировать]

Информация о фильме
Название: Ужасающий
Оригинальное название: Terrifier
Год выхода: 2017
Жанр: Ужасы, триллер
Режиссер: Дэмиен Леоне
В ролях: Катрин Коркоран, Дженна Кэнелл, Маргарет Рид, Пуйа Мохсени, Сильвия Вардашка, Кэти Магвайр, Саманта Скаффиди, Эрик Самора, Джино Кафарелли, Дэвид Ховард Торнтон
О фильме:
Молодая девушка-журналист берет интервью у единственной выжившей в ужасной резне округа Мейлз. Это были очень душещипательная история женщины, изуродованной безжалостным маньяком по прозвищу Клоун-творец. Жертва серийного убийцы утверждала, что видела его смерть, но по данным журналистки его тело исчезло из лаборатории судмедэкспертов на следующий день после трагедии. А это значит, что любой из жителей небольшого городка может оказаться в зоне внимания безумного клоуна и стать его новой добычей.

Страна: США
Студия: Dark Age Cinema
Продолжительность: 01:24:29
Перевод: Любительский одноголосый | Хихикающий доктор | Небольшая реклама в титрах
Внимание! Присутствует ненормативная лексика!
Файл
Кодек: x.264
Качество: BDRip 1080p
Видео: MPEG-4 AVC, 1920x1012, 10.5бит/с, 23.976 кадр/с
Звук:
Аудио #1: Русский ( AC3, 6ch, 384 Кбит/с, 48.0 KHz) Любительский (одноголосый, закадровый) Хихикающий доктор
Аудио #2: Английский ( AC3, 6ch, 448 Кбит/с, 48.0 KHz)
Субтитры: английские, испанские

MediaInfo

Источник: Terrifier.2017.1080p.BluRay.x264-HANDJOB
General
Unique ID : 194404161477363949392037627319707997217 (0x9240E12CD4079E019AF5FC1D7C4B9421)
Complete name : Terrifier.2017.BDRip.1080p.mkv
Format : Matroska
Format version : Version 4 / Version 2
File size : 6.69 GiB
Duration : 1 h 24 min
Overall bit rate : 11.3 Mb/s
Encoded date : UTC 2018-07-07 20:33:17
Writing application : mkvmerge v7.1.0 ('Good Love') 64bit built on Jul 27 2014 13:06:55
Writing library : libebml v1.3.0 + libmatroska v1.4.1
Video
ID : 1
Format : AVC
Format/Info : Advanced Video Codec
Format profile : High@L4.1
Format settings : CABAC / 4 Ref Frames
Format settings, CABAC : Yes
Format settings, ReFrames : 4 frames
Codec ID : V_MPEG4/ISO/AVC
Duration : 1 h 24 min
Bit rate : 10.5 Mb/s
Width : 1 920 pixels
Height : 1 012 pixels
Display aspect ratio : 1.897
Frame rate mode : Constant
Frame rate : 23.976 (24000/1001) FPS
Color space : YUV
Chroma subsampling : 4:2:0
Bit depth : 8 bits
Scan type : Progressive
Bits/(Pixel*Frame) : 0.225
Stream size : 6.19 GiB (93%)
Writing library : x264 core 155 r2893 b00bcaf
Encoding settings : cabac=1 / ref=4 / deblock=1:-3:-3 / analyse=0x3:0x133 / me=umh / subme=10 / psy=1 / psy_rd=1.00:0.00 / mixed_ref=1 / me_range=32 / chroma_me=1 / trellis=2 / 8x8dct=1 / cqm=0 / deadzone=21,11 / fast_pskip=0 / chroma_qp_offset=-2 / threads=12 / lookahead_threads=3 / sliced_threads=0 / nr=0 / decimate=0 / interlaced=0 / bluray_compat=0 / constrained_intra=0 / bframes=16 / b_pyramid=2 / b_adapt=2 / b_bias=0 / direct=3 / weightb=1 / open_gop=0 / weightp=1 / keyint=240 / keyint_min=24 / scenecut=40 / intra_refresh=0 / rc_lookahead=60 / rc=crf / mbtree=0 / crf=21.0 / qcomp=0.60 / qpmin=0 / qpmax=69 / qpstep=4 / vbv_maxrate=62500 / vbv_bufsize=78125 / crf_max=0.0 / nal_hrd=none / filler=0 / ip_ratio=1.40 / pb_ratio=1.30 / aq=2:0.70
Language : English
Default : Yes
Forced : No
Color range : Limited
Color primaries : BT.709
Transfer characteristics : BT.709
Matrix coefficients : BT.709
Audio #1
ID : 2
Format : AC-3
Format/Info : Audio Coding 3
Codec ID : A_AC3
Duration : 1 h 24 min
Bit rate mode : Constant
Bit rate : 384 kb/s
Channel(s) : 6 channels
Channel positions : Front: L C R, Side: L R, LFE
Sampling rate : 48.0 kHz
Frame rate : 31.250 FPS (1536 SPF)
Bit depth : 16 bits
Compression mode : Lossy
Stream size : 232 MiB (3%)
Language : Russian
Service kind : Complete Main
Default : Yes
Forced : No
Audio #2
ID : 3
Format : AC-3
Format/Info : Audio Coding 3
Codec ID : A_AC3
Duration : 1 h 24 min
Bit rate mode : Constant
Bit rate : 448 kb/s
Channel(s) : 6 channels
Channel positions : Front: L C R, Side: L R, LFE
Sampling rate : 48.0 kHz
Frame rate : 31.250 FPS (1536 SPF)
Bit depth : 16 bits
Compression mode : Lossy
Stream size : 271 MiB (4%)
Language : English
Service kind : Complete Main
Default : No
Forced : No
Text #1
ID : 4
Format : UTF-8
Codec ID : S_TEXT/UTF8
Codec ID/Info : UTF-8 Plain Text
Duration : 1 h 23 min
Bit rate : 40 b/s
Count of elements : 1122
Stream size : 25.1 KiB (0%)
Language : English
Default : No
Forced : No
Text #2
ID : 5
Format : UTF-8
Codec ID : S_TEXT/UTF8
Codec ID/Info : UTF-8 Plain Text
Duration : 1 h 20 min
Bit rate : 32 b/s
Count of elements : 720
Stream size : 19.1 KiB (0%)
Language : Spanish
Default : No
Forced : No
Menu
00:00:00.000 : en:Chapter 01
00:07:30.408 : en:Chapter 02
00:16:26.360 : en:Chapter 03
00:26:32.549 : en:Chapter 04
00:32:15.058 : en:Chapter 05
00:39:30.701 : en:Chapter 06
00:49:22.167 : en:Chapter 07
00:59:42.996 : en:Chapter 08
01:07:46.896 : en:Chapter 09
01:17:32.230 : en:Chapter 10
01:21:49.779 : en:Chapter 11

Скриншоты

[Профиль] [ЛС]
Показать сообщения:    

Текущее время: Сегодня 22:48

Часовой пояс: GMT



Вы не можете начинать темы
Вы не можете отвечать на сообщения
Вы не можете редактировать свои сообщения
Вы не можете удалять свои сообщения
Вы не можете голосовать в опросах
Вы не можете прикреплять файлы к сообщениям
Вы не можете скачивать файлы