Коллектор / The Debt Collector (2018) HDRip 1080p | GreenРай Studio

 
Автор Сообщение

BOSS ®

Пол:

Стаж: 3 года 9 месяцев

Сообщений: 11149

Откуда: ODESSA



Награды: 22 (Подробнее)

Top Releaser 3 (Количество: 1) Top Releaser 4 (Количество: 1) Mega Releaser 1 (Количество: 1)
Торрент-статистика

Создавать темы 07-Июл-2018 17:55

[Цитировать]

Информация о фильме
Год выхода: 2018
Наименование: Коллектор
Оригинальное наименование: The Debt Collector
Произведено: США
Категория: боевик
Режиссер постановщик: Джесси Джонсон
В главных ролях: Скотт Эдкинс, Луис Мэндилор, Владимир Кулих, Тони Тодд, Селина Ло, Рустик Бодомов, Алекса Бондарь
О фильме: Фильм повествует о мастере боевых искусств, который устраивается сборщиком долгов к местным бандитам. Работа выглядит незамысловато, пока однажды из-за своего клиента герой не впутывается в серьёзные проблемы.

Файл
Качество: HDRip 1080p
Видео данные: MKV, 1920x820 (2.35:1), 23.976 fps, 8987 Кбит/с
Аудио данные: AAC, 2 ch, 192 Кбит/с
Перевод: Любительский многоголосый (GreenРай Studio)
Продолжительность: 01:36:47

Медиаинфо

General
Unique ID : 295328084447976302002855661590727987168 (0xDE2E1EC08E9D52D21F488DEEC2D18FE0)
Complete name : E:ГРИНРАЙThe.Debt.Collector.2018.P.BDRip.1080p.mkv
Format : Matroska
Format version : Version 4 / Version 2
File size : 6.21 GiB
Duration : 1 h 36 min
Overall bit rate : 9 179 kb/s
Encoded date : UTC 2018-07-07 10:12:55
Writing application : mkvmerge v21.0.0 ('Tardigrades Will Inherit The Earth') 64-bit
Writing library : libebml v1.3.5 + libmatroska v1.4.8
Video
ID : 1
Format : AVC
Format/Info : Advanced Video Codec
Format profile : High@L4.1
Format settings : CABAC / 1 Ref Frames
Format settings, CABAC : Yes
Format settings, RefFrames : 1 frame
Format settings, GOP : M=1, N=30
Codec ID : V_MPEG4/ISO/AVC
Duration : 1 h 36 min
Bit rate : 8 987 kb/s
Width : 1 920 pixels
Height : 820 pixels
Display aspect ratio : 2.35:1
Frame rate mode : Constant
Frame rate : 23.976 (24000/1001) FPS
Color space : YUV
Chroma subsampling : 4:2:0
Bit depth : 8 bits
Scan type : Progressive
Bits/(Pixel*Frame) : 0.238
Stream size : 6.08 GiB (98%)
Language : English
Default : Yes
Forced : No
Audio
ID : 2
Format : AAC
Format/Info : Advanced Audio Codec
Format profile : LC
Codec ID : A_AAC-2
Duration : 1 h 36 min
Bit rate : 192 kb/s
Channel(s) : 2 channels
Channel positions : Front: L R
Sampling rate : 48.0 kHz
Frame rate : 46.875 FPS (1024 SPF)
Compression mode : Lossy
Stream size : 131 MiB (2%)
Language : English
Default : Yes
Forced : No
Внимание, имеется видео и аудио реклама от спонсора показа

Скриншоты

Релиз от:
[Профиль] [ЛС]
Кто просматривает тему:

Форум Тема Автор Размер
Шансон, авторская и военная песня (Author's Song) Владимир Высоцкий - Коллекция (New Sound) [15] - 2005 - 2007, MP3 (tracks+image) , 320 kbps sergej644 2.07 GB
Шансон, авторская и военная песня (Author's Song) Владимир Высоцкий в записях Михаила Шемякина (7CD) - Коллекция - 1996 [MP3, tracks, 320 kbps] sergej644 939 MB
Author's Song (Author's Song) Владимир Высоцкий. Спасибо, что живой (Коллекция изд. Амфора, 11 CD) 2011 - 2012, FLAC (image + .cue), lossless sergej644 2.53 GB
Шансон, авторская и военная песня (Author's Song) Владимир Высоцкий. Спасибо, что живой (Коллекция изд. Амфора, 11 CD) 2011 - 2012, [MP3, tracks, 320 kbps] sergej644 1.05 GB
Vinyl-Rip и Hand-Made (Chanson) [LP] [32\192] Александр Новиков • Коллекция (4 LP) - 1984-1992, WavPack (image+.cue) sergej644 8.09 GB
Шансон, авторская и военная песня (Chanson) Иван Кучин - Коллекция(31) 1987 - 2013,MP3, 320 kbps sergej644 5.01 GB
Сhanson (Chanson) Лепс Григорий - Лучшее (Золотая коллекция)(2CD) - 2009, MP3, 320 kbps sergej644 357 MB
Шансон, авторская и военная песня (Chanson)Любавин Сергей - Коллекция(19) 1996 - 2012, MP3, 320 kbps sergej644 2.93 GB
Показать сообщения:    

Текущее время: Сегодня 22:08

Часовой пояс: GMT



Вы не можете начинать темы
Вы не можете отвечать на сообщения
Вы не можете редактировать свои сообщения
Вы не можете удалять свои сообщения
Вы не можете голосовать в опросах
Вы не можете прикреплять файлы к сообщениям
Вы не можете скачивать файлы