Последняя запись / The Last Note (2017) HDRip 1080p | GreenРай Studio

 
Автор Сообщение

BOSS ®

Пол:

Стаж: 4 года 4 месяца

Сообщений: 13429

Откуда: ODESSA



Награды: 22 (Подробнее)

Top Releaser 5 (Количество: 1) Top Keeper 1 (Количество: 1) Top Releaser 3 (Количество: 1)
Торрент-статистика

Создавать темы 06-Июл-2018 16:08

[Цитировать]

Информация о фильме
Год выхода: 2017
Наименование: Последняя запись
Оригинальное наименование: The Last Note
Жанр: Греция
Страна: драма
Режиссер постановщик: Пантелис Вулгарис
В главных ролях: Тасос Димас, Андре Хеннике, Гиоргос Карамалегос, Андреас Константину, Василис Кукалани, Мелия Крейлинг, Лукас Кириазис
О фильме: В апреле 1944 года партизаны Народно-освободительной армии Греции убили немецкого генерала и троих офицеров. В качестве ответной меры немецкое командование постановило 1 мая 1944 года расстрелять двести политических заключенных, противников диктатуры генерала Метаксаса.

Файл
Качество: HDRip 1080p
Видео данные: MKV, 1920x810 (2.40:1), 23.976 fps, 7814 Кбит/с
Аудио данные: AAC, 2 ch, 192 Кбит/с
Перевод: Любительский многоголосый (GreenРай Studio)
Продолжительность: 01:58:00

Медиаинфо

General
Unique ID : 107203496441937994501345652915328580502 (0x50A6A473EFCC97D7913AE687B2B0FB96)
Complete name : D:ГРИНРАЙThe.Last.Note.2017.P.BDRip.1080p.mkv
Format : Matroska
Format version : Version 4 / Version 2
File size : 6.60 GiB
Duration : 1 h 58 min
Overall bit rate : 8 006 kb/s
Encoded date : UTC 2018-07-06 07:29:28
Writing application : mkvmerge v21.0.0 ('Tardigrades Will Inherit The Earth') 64-bit
Writing library : libebml v1.3.5 + libmatroska v1.4.8
Video
ID : 1
Format : AVC
Format/Info : Advanced Video Codec
Format profile : High@L4.1
Format settings : CABAC / 1 Ref Frames
Format settings, CABAC : Yes
Format settings, RefFrames : 1 frame
Format settings, GOP : M=1, N=30
Codec ID : V_MPEG4/ISO/AVC
Duration : 1 h 58 min
Bit rate : 7 814 kb/s
Width : 1 920 pixels
Height : 810 pixels
Display aspect ratio : 2.40:1
Frame rate mode : Constant
Frame rate : 23.976 (24000/1001) FPS
Color space : YUV
Chroma subsampling : 4:2:0
Bit depth : 8 bits
Scan type : Progressive
Bits/(Pixel*Frame) : 0.210
Stream size : 6.44 GiB (98%)
Language : English
Default : Yes
Forced : No
Audio
ID : 2
Format : AAC
Format/Info : Advanced Audio Codec
Format profile : LC
Codec ID : A_AAC-2
Duration : 1 h 58 min
Bit rate : 192 kb/s
Channel(s) : 2 channels
Channel positions : Front: L R
Sampling rate : 48.0 kHz
Frame rate : 46.875 FPS (1024 SPF)
Compression mode : Lossy
Stream size : 160 MiB (2%)
Language : English
Default : Yes
Forced : No
Внимание, имеется видео и аудио реклама от спонсора показа

Скриншоты

Релиз от:
[Профиль] [ЛС]
Показать сообщения:    

Текущее время: Сегодня 01:09

Часовой пояс: GMT



Вы не можете начинать темы
Вы не можете отвечать на сообщения
Вы не можете редактировать свои сообщения
Вы не можете удалять свои сообщения
Вы не можете голосовать в опросах
Вы не можете прикреплять файлы к сообщениям
Вы не можете скачивать файлы