Дом у озера / The Lake House (2006) BDRip 1080p | D, P2, A

 
Автор Сообщение

BOSS ®

Пол:

Стаж: 4 года 1 месяц

Сообщений: 12372

Откуда: ODESSA



Награды: 22 (Подробнее)

Top Releaser 5 (Количество: 1) Top Seeder 5 (Количество: 1) Top Seeder 2 (Количество: 1)
Торрент-статистика

Создавать темы 06-Июл-2018 15:39

[Цитировать]

Информация о фильме
Название: Дом у озера
Оригинальное название: The Lake House
Год выпуска: 2006
Жанр: фэнтези, драма, мелодрама
Режиссер: Алехандро Агрести
В ролях: Киану Ривз (Alex Wyler), Сандра Буллок (Kate Forster), Кристофер Пламмер (Simon Wyler), Эбон Мосс-Бакрак (Henry Wyler), Виллеке ван Аммельрой (Kate's Mother), Дилан Уолш (Morgan), Шоре Агдашлу (Anna), Линн Коллинс (Mona), Майк Бакарелла (Mulhern), Кевин Бреннан (Waiter), Фрэнк Каети (Cove Patron), Алайя Карр (Girl Patient)
О фильме:
Кейт Форстер после расставания с парнем решает переехать из арендуемого дома, чтобы начать всё с чистого листа, а заодно быть ближе к работе. Она оставляет в почтовом ящике письмо для следующего жильца, объясняя ему некоторые нюансы. Новым съёмщиком оказывается Алекс Уайлер — одинокий архитектор, отец которого и построил этот прекрасный дом. Он читает послание, но не может понять, почему описанное Кейт не совпадает с действительностью. Это побуждает Алекса написать ответ.
Через несколько дней переписки герои понимают, что живут в разное время: он в 2004 году, она — в 2006. И лишь загадочный почтовый ящик служит им соединяющим мостиком.

MPAA: PG - Рекомендуется присутствие родителей
Страна: США
Студия: Sound for Film Inc., Vertigo Entertainment, Village Roadshow Pictures, Warner Bros. Pictures
Продолжительность: 01:38:33
Перевод: Профессиональный (дублированный), Профессиональный (двухголосый, закадровый), Авторский (одноголосый, закадровый)
Файл
Качество: BDRip 1080p
Формат: Matroska
Видео: 1920х796 at 23.976 fps, x264, ~10700 kbps avg
Аудио#1: Russian: 48 kHz, AC3, 3/2 (L,C,R,l,r) + LFE ch, ~448 kbps avg |Дубляж, R5|
Аудио#2: Russian: 48 kHz, AC3, 3/2 (L,C,R,l,r) + LFE ch, ~448 kbps avg |Двухголосый закадровый, Superbit|
Аудио#3: Russian: 48 kHz, AC3, 3/2 (L,C,R,l,r) + LFE ch, ~448 kbps avg |Авторский, М.Иванов|
Аудио#4: Russian: 48 kHz, AC3, 3/2 (L,C,R,l,r) + LFE ch, ~640 kbps avg |Авторский, В.Королёв|
Аудио#5: English: 48 kHz, AC3, 3/2 (L,C,R,l,r) + LFE ch, ~640 kbps avg
Субтитры: Russian, English
***Сохранены оригинальные главы как на Blu-ray.
***Релиз: msltel.

Знаете ли вы, что...

Первоначально на роль главного героя планировался Джон Кьюсак.
Фильм вошел в историю как первая картина, вышедшая одновременно в трех цифровых форматах: DVD, HD-DVD и BluRay.
Кейт живёт по адресу: Рэсин, 1620. В этом же доме жил герой Шона Коннери из фильма «Неприкасаемые» (1987).
Рабочим названием фильма долгое время оставалось «Il Mare». В фильме - это итальянское слово, означающее «море»; используется для названия ресторана, где Алекс назначает встречу Кэйт через два года. Кроме того - это название корейского фильма-оригинала.
Героиня Буллок дважды смотрит один и тот же фильм - «Дурная слава» (1946).
В фильме Алекс говорит брату: «Да и не искупаешься, была бы хоть лестница к воде… Ты здесь словно в коробке, в аквариуме из которого видно все вокруг, но потрогать нельзя», - однако на других кадрах отчётливо видно, что лестница к воде на самом деле есть.
В момент случайной встречи героев в 2004 году, Алекс и Кэйт танцуют под песню Пола МакКартни «This Never Happened Before», что по сути является анахронизмом: песня была записана МакКартни только в 2005 году.
Когда Кейт просматривает фотографии за период двухлетней давности, она говорит собаке: «Помнишь тот день? Ты не в духе была». На самом деле собака в тот период времени находилась у Алекса.

MediaInfo

Общее
Уникальный идентификатор : 177926692653100184123341225307397231711 (0x85DB6F3D44D5B2FA930B82C50FD5145F)
Полное имя : Дом у озера.2006.BDRip.1080p by msltel.mkv
Формат : Matroska
Версия формата : Version 4 / Version 2
Размер файла : 9,35 Гбайт
Продолжительность : 1 ч. 38 м.
Общий поток : 13,6 Мбит/сек
Название фильма : Rip by msltel
Дата кодирования : UTC 2018-01-06 03:20:18
Программа кодирования : mkvmerge v8.2.0 ('World of Adventure') 64bit
Библиотека кодирования : libebml v1.3.1 + libmatroska v1.4.2
Видео
Идентификатор : 1
Формат : AVC
Формат/Информация : Advanced Video Codec
Профиль формата : High@L4.1
Параметр CABAC формата : Да
Параметр ReFrames формата : 4 кадра
Идентификатор кодека : V_MPEG4/ISO/AVC
Продолжительность : 1 ч. 38 м.
Битрейт : 10,7 Мбит/сек
Ширина : 1920 пикселей
Высота : 796 пикселей
Соотношение сторон : 2,40:1
Режим частоты кадров : Постоянный
Частота кадров : 23,976 кадра/сек
Цветовое пространство : YUV
Субдискретизация насыщенности : 4:2:0
Битовая глубина : 8 бит
Тип развёртки : Прогрессивная
Бит/(Пиксели*Кадры) : 0.292
Размер потока : 7,36 Гбайт (79%)
Библиотека кодирования : x264 core 146 r2538 121396c
Настройки программы : cabac=1 / ref=4 / deblock=1:-3:-2 / analyse=0x3:0x113 / me=umh / subme=11 / psy=1 / psy_rd=1.00:0.15 / mixed_ref=1 / me_range=32 / chroma_me=1 / trellis=2 / 8x8dct=1 / cqm=0 / deadzone=21,11 / fast_pskip=0 / chroma_qp_offset=-3 / threads=6 / lookahead_threads=1 / sliced_threads=0 / nr=0 / decimate=1 / interlaced=0 / bluray_compat=0 / constrained_intra=0 / bframes=11 / b_pyramid=2 / b_adapt=2 / b_bias=0 / direct=1 / weightb=1 / open_gop=0 / weightp=2 / keyint=230 / keyint_min=23 / scenecut=40 / intra_refresh=0 / rc_lookahead=40 / rc=crf / mbtree=0 / crf=17.8 / qcomp=0.60 / qpmin=0 / qpmax=69 / qpstep=4 / vbv_maxrate=62500 / vbv_bufsize=78125 / crf_max=0.0 / nal_hrd=none / filler=0 / ip_ratio=1.40 / pb_ratio=1.30 / aq=1:1.00
Язык : English
Default : Да
Forced : Нет
Аудио #1
Идентификатор : 2
Формат : AC-3
Формат/Информация : Audio Coding 3
Расширение режима : CM (complete main)
Параметр Endianness формата : Big
Идентификатор кодека : A_AC3
Продолжительность : 1 ч. 38 м.
Вид битрейта : Постоянный
Битрейт : 448 Кбит/сек
Каналы : 6 каналов
Расположение каналов : Front: L C R, Side: L R, LFE
Частота : 48,0 КГц
Битовая глубина : 16 бит
Метод сжатия : С потерями
Размер потока : 316 Мбайт (3%)
Заголовок : DUB
Язык : Russian
Default : Да
Forced : Нет
Аудио #2
Идентификатор : 3
Формат : AC-3
Формат/Информация : Audio Coding 3
Расширение режима : CM (complete main)
Параметр Endianness формата : Big
Идентификатор кодека : A_AC3
Продолжительность : 1 ч. 38 м.
Вид битрейта : Постоянный
Битрейт : 448 Кбит/сек
Каналы : 6 каналов
Расположение каналов : Front: L C R, Side: L R, LFE
Частота : 48,0 КГц
Битовая глубина : 16 бит
Метод сжатия : С потерями
Размер потока : 316 Мбайт (3%)
Заголовок : DVO.Superbit
Язык : Russian
Default : Нет
Forced : Нет
Аудио #3
Идентификатор : 4
Формат : AC-3
Формат/Информация : Audio Coding 3
Расширение режима : CM (complete main)
Параметр Endianness формата : Big
Идентификатор кодека : A_AC3
Продолжительность : 1 ч. 38 м.
Вид битрейта : Постоянный
Битрейт : 448 Кбит/сек
Каналы : 6 каналов
Расположение каналов : Front: L C R, Side: L R, LFE
Частота : 48,0 КГц
Битовая глубина : 16 бит
Метод сжатия : С потерями
Размер потока : 316 Мбайт (3%)
Заголовок : Михаил Иванов
Язык : Russian
Default : Нет
Forced : Нет
Аудио #4
Идентификатор : 5
Формат : AC-3
Формат/Информация : Audio Coding 3
Расширение режима : CM (complete main)
Параметр Endianness формата : Big
Идентификатор кодека : A_AC3
Продолжительность : 1 ч. 38 м.
Вид битрейта : Постоянный
Битрейт : 640 Кбит/сек
Каналы : 6 каналов
Расположение каналов : Front: L C R, Side: L R, LFE
Частота : 48,0 КГц
Битовая глубина : 16 бит
Метод сжатия : С потерями
Размер потока : 451 Мбайт (5%)
Заголовок : Владимир Королёв
Язык : Russian
Default : Нет
Forced : Нет
Аудио #5
Идентификатор : 6
Формат : AC-3
Формат/Информация : Audio Coding 3
Расширение режима : CM (complete main)
Параметр Endianness формата : Big
Идентификатор кодека : A_AC3
Продолжительность : 1 ч. 38 м.
Вид битрейта : Постоянный
Битрейт : 640 Кбит/сек
Каналы : 6 каналов
Расположение каналов : Front: L C R, Side: L R, LFE
Частота : 48,0 КГц
Битовая глубина : 16 бит
Метод сжатия : С потерями
Размер потока : 451 Мбайт (5%)
Заголовок : original
Язык : English
Default : Нет
Forced : Нет
Текст #1
Идентификатор : 7
Формат : UTF-8
Идентификатор кодека : S_TEXT/UTF8
Идентификатор кодека/Информация : UTF-8 Plain Text
Заголовок : русские
Язык : Russian
Default : Нет
Forced : Нет
Текст #2
Идентификатор : 8
Формат : UTF-8
Идентификатор кодека : S_TEXT/UTF8
Идентификатор кодека/Информация : UTF-8 Plain Text
Заголовок : английские
Язык : English
Default : Нет
Forced : Нет
Меню
00:00:00.000 : :Chapter 01
00:03:35.380 : :Chapter 02
00:07:38.290 : :Chapter 03
00:13:18.130 : :Chapter 04
00:17:17.202 : :Chapter 05
00:23:39.416 : :Chapter 06
00:26:58.449 : :Chapter 07
00:32:44.629 : :Chapter 08
00:36:40.364 : :Chapter 09
00:40:25.422 : :Chapter 10
00:45:45.742 : :Chapter 11
00:50:27.858 : :Chapter 12
00:59:24.727 : :Chapter 13
01:03:21.296 : :Chapter 14
01:09:23.993 : :Chapter 15
01:13:14.890 : :Chapter 16
01:15:48.542 : :Chapter 17
01:20:21.483 : :Chapter 18
01:24:50.752 : :Chapter 19
01:28:11.119 : :Chapter 20
01:35:03.531 : :Chapter 21
01:38:33.115 : :Chapter 22

Скриншоты

[Профиль] [ЛС]
Кто просматривает тему:

Форум Тема Автор Размер
Фильмы 2011 года Дом у озера / The Lake House (Алехандро Агрести / Alejandro Agresti) [2006, США, Австралия, фэнтези, драма, мелодрама, BDRip-AVC] Dub + DVO + Original Eng + Sub TorrentFilm 1.45 GB
Фильмы 2011 года Дом у озера / The Lake House (Алехандро Агрести / Alejandro Agresti) [2006, США, Австралия, фэнтези, драма, мелодрама, BDRip-AVC] Dub + Original Eng + Sub painkiller 749 MB
Фильмы 2011 года Дом у озера / The Lake House (Алехандро Агрести / Alejandro Agresti) [2006, США, Австралия, фэнтези, драма, мелодрама, BDRip] AVO (Иванов) TorrentFilm 1.46 GB
Отечественные cериалы Дом у последнего фонаря [01-04 из 04] (2017) WEB-DLRip BOSS 2.31 GB
Фильмы (HD DVD, Blu-ray и BDRemux) Придорожная закусочная / Придорожное заведение / Дом у дороги / Road House (Рауди Херрингтон / Rowdy Herrington) [1989 г., боевик, триллер, мелодрама, драма, криминал, Blu-ray] sergej644 21.62 GB
Фильмы 2011 года Придорожное заведение 2: Последний вызов / Дом у дороги 2 / Road House 2: Last Call (Скотт Зил / Scott Ziehl) [2006, США, боевик, драма, криминал, DVDRip] AVO (Андрей Дольский) TorrentFilm 1.46 GB
Показать сообщения:    

Текущее время: Сегодня 18:43

Часовой пояс: GMT



Вы не можете начинать темы
Вы не можете отвечать на сообщения
Вы не можете редактировать свои сообщения
Вы не можете удалять свои сообщения
Вы не можете голосовать в опросах
Вы не можете прикреплять файлы к сообщениям
Вы не можете скачивать файлы