Шпионская игра / The Catcher Was a Spy (2018) WEBRip 720p | L2

 
Автор Сообщение

BOSS ®

Пол:

Стаж: 3 года 9 месяцев

Сообщений: 11123

Откуда: ODESSA



Награды: 22 (Подробнее)

Top Releaser 4 (Количество: 1) Top Releaser 2 (Количество: 1) Mega Seeder 1 (Количество: 1)
Торрент-статистика

Создавать темы 06-Июл-2018 15:31

[Цитировать]

Информация о фильме
Название: Шпионская игра
Оригинальное название: The Catcher Was a Spy
Год выхода: 2018
Жанр: Триллер, приключения
Режиссер: Бен Луин
В ролях: Пол Радд, Конни Нильсен, Марк Стронг, Сиенна Миллер, Гай Пирс, Пол Джаматти, Джефф Дэниелс, Хироюки Санада, Шей Уигэм, Том Уилкинсон и другие
О фильме:
Разгар Второй мировой войны. Жизнь Мо Берга, интеллектуала, полиглота, выпускника престижного университета и известного спортсмена-бейсболиста, круто меняется, когда ему предлагают сотрудничество с Управлением стратегических служб (предшественник ЦРУ). Благодаря своим разнообразным талантам, а также умению хранить секреты, Мо быстро осваивается в роли шпиона. От выполнения его первого задания зависит - ни много ни мало - судьба всего мира. Берг должен отправиться в фашистскую Германию, чтобы выкрасть или уничтожить Вернера Гейзенберга, одного из ученых - разработчиков атомной бомбы...

Страна: США, PalmStar Media, Animus Films, Serena Films
Продолжительность: 01:35:11
Перевод: Любительский (двухголосый закадровый) | HiWay Grope
Файл
Кодек: MPEG-4 AVC/x.264
Качество: WEBRip 720p
Видео: 1280x692, 25.000 fps, ~4371 kbps, 0.197 bit/pixel
Звук:
Аудио rus: AC3, 48 kHz, 6 ch, 384 Kbps
Субтитры: отсутствуют
Реклама: присутствует
Семпл

MediaInfo:

General
Unique ID : 233875691993509460266403542952276950035 (0xAFF2D1E185E662B1A3BEC3270C7C7C13)
Complete name : D:The.Catcher.Was.a.Spy.2018.720p.WEBRip.HiWayGropeThe.Catcher.Was.a.Spy.2018.720p.WEBRip.HiWayGrope.mkv
Format : Matroska
Format version : Version 2
File size : 3.23 GiB
Duration : 1 h 35 min
Overall bit rate : 4 852 kb/s
Encoded date : UTC 2018-07-05 16:13:20
Writing application : mkvmerge v3.3.0 ('Language') built on Mar 24 2010 14:59:24
Writing library : libebml v0.8.0 + libmatroska v0.9.0
Video
ID : 1
Format : AVC
Format/Info : Advanced Video Codec
Format profile : Main@L3.1
Format settings : CABAC / 3 Ref Frames
Format settings, CABAC : Yes
Format settings, ReFrames : 3 frames
Codec ID : V_MPEG4/ISO/AVC
Duration : 1 h 35 min
Bit rate : 4 371 kb/s
Width : 1 280 pixels
Height : 692 pixels
Display aspect ratio : 1.85:1
Frame rate mode : Constant
Frame rate : 25.000 FPS
Standard : PAL
Color space : YUV
Chroma subsampling : 4:2:0
Bit depth : 8 bits
Scan type : Progressive
Bits/(Pixel*Frame) : 0.197
Stream size : 2.91 GiB (90%)
Language : English
Default : Yes
Forced : No
Color range : Limited
Color primaries : BT.709
Transfer characteristics : BT.709
Matrix coefficients : BT.709
Audio
ID : 2
Format : AC-3
Format/Info : Audio Coding 3
Codec ID : A_AC3
Duration : 1 h 35 min
Bit rate mode : Constant
Bit rate : 384 kb/s
Channel(s) : 6 channels
Channel positions : Front: L C R, Side: L R, LFE
Sampling rate : 48.0 kHz
Frame rate : 31.250 FPS (1536 SPF)
Bit depth : 16 bits
Compression mode : Lossy
Stream size : 261 MiB (8%)
Service kind : Complete Main
Default : Yes
Forced : No

Скриншоты

Релиз от: HiWay Grope
[Профиль] [ЛС]
Кто просматривает тему:

Форум Тема Автор Размер
Документальные HD 3D шпионы во Второй мировой войне / 3D Spies of WWII. Destroying Hitler\'s Top Secret Rockets (Тим Данн / Tim Dunn) [2011, Документальный, война, история, HDTVRip 720p] TorrentFilm 1.25 GB
BBC BBC: Шпионы в дикой природе / Spy in the Wild [сезон 1 серии 1-5 из 5] (Джон Даунер / John Downer) [2017 г., Документальный, научно-познавательный, фауна, исследование, BDRip-AVC 720p] skorpionN 9.59 GB
Discovery Discovery: Шпионы в берлинском тоннеле / Discovery: Spies Beneath Berlin (Сэм Бенстид / Sam Benstead, Джонатан Хакер / Jonathan Hacker) [2011, Документальный, SATRip] reversefile 471 MB
Viasat History Viasat History: Мастера шпионажа / History's Ultimate Spies (Spymaster) [сезон 1 серии 1-6 из 6] (Bruce Burgess) [2015 г., Документально-постановочный, история, HDTVRip 720p] skorpionN 9.3 GB
Фильмы (DVD 5/9) «Богатырь» идёт в Марто (Евгений Брюнчугин, Сигизмунд Навроцкий) [1954, СССР, Приключения, шпионский, DVD5] TorrentFilm 2.46 GB
Зарубежные мультфильмы Барби и команда шпионов / Barbie: Spy Squad (2016) BDRip | Лицензия достали все 1.47 GB
Зарубежные мультфильмы Барби и команда шпионов / Barbie: Spy Squad (2016) DVDRip | Line достали все 1.37 GB
Кино СССР Без срока давности (Эдгар Ходжикян) [1986, детектив, шпионский, TVRip] sergej644 1.37 GB
Показать сообщения:    

Текущее время: Сегодня 19:55

Часовой пояс: GMT



Вы не можете начинать темы
Вы не можете отвечать на сообщения
Вы не можете редактировать свои сообщения
Вы не можете удалять свои сообщения
Вы не можете голосовать в опросах
Вы не можете прикреплять файлы к сообщениям
Вы не можете скачивать файлы