Большая легенда / Big Legend (2018) WEBRip 1080p | L1

 
Автор Сообщение

BOSS ®

Пол:

Стаж: 3 года 11 месяцев

Сообщений: 11860

Откуда: ODESSA



Награды: 22 (Подробнее)

Top Releaser 3 (Количество: 1) Top Keeper 2 (Количество: 1) Mega Seeder 4 (Количество: 1)
Торрент-статистика

Создавать темы 06-Июл-2018 15:30

[Цитировать]

Информация о фильме
Название: Большая легенда
Оригинальное название: Big Legend
Год выхода: 2018
Жанр: Боевик, триллер
Режиссер: Джастин Ли
В ролях: Кевин Макли, Тодд Робинсон, Аманда Уайсс, Саммер Спира, Эшли Платц, Эдриенн Барбо, Лэнс Хенриксен
О фильме:
Тайлер отправляется в тихоокеанские северо-западные густые леса после того, как его невеста неожиданно пропала, отправившись туда на экспедицию. Там он встречает охотника, который решает помочь парню. Идя по стопам учёных, на которых они вышли, герои никак не ожидают, что легенды о Бигфуте окажутся правдивыми.

Страна: США
Студия: Papa Octopus Productions, Fresh Cats Productions
Продолжительность: 01:29:15
Перевод: Любительский одноголосый | Хихикающий доктор
Файл
Кодек: AVC
Качество: WEBRip 1080p
Видео: MPEG-4 AVC, 1920x800, 5500 Kбит/с, 23.976 кадр/с
Звук: Небольшая реклама в титрах
Аудио #1: Русский ( AC3, 6ch, 384 Кбит/с, 48.0 KHz) Любительский (одноголосый, закадровый) Хихикающий доктор
Аудио #2: Английский ( AC3, 6ch, 384 Кбит/с, 48.0 KHz)

MediaInfo

General
Unique ID : 198504385669584743076019389407194074212 (0x95568DD5EA158E71ADF725CACC454C64)
Complete name : Big.Legend.2018.WEBRip.1080p.mkv
Format : Matroska
Format version : Version 4 / Version 2
File size : 3.91 GiB
Duration : 1 h 29 min
Overall bit rate : 6 268 kb/s
Encoded date : UTC 2018-07-05 19:51:55
Writing application : mkvmerge v7.1.0 ('Good Love') 64bit built on Jul 27 2014 13:06:55
Writing library : libebml v1.3.0 + libmatroska v1.4.1
Video
ID : 1
Format : AVC
Format/Info : Advanced Video Codec
Format profile : High@L4.1
Format settings : CABAC / 5 Ref Frames
Format settings, CABAC : Yes
Format settings, ReFrames : 5 frames
Codec ID : V_MPEG4/ISO/AVC
Duration : 1 h 29 min
Bit rate : 5 500 kb/s
Width : 1 920 pixels
Height : 800 pixels
Display aspect ratio : 2.40:1
Frame rate mode : Constant
Frame rate : 23.976 (24000/1001) FPS
Color space : YUV
Chroma subsampling : 4:2:0
Bit depth : 8 bits
Scan type : Progressive
Bits/(Pixel*Frame) : 0.149
Stream size : 3.43 GiB (88%)
Writing library : x264 core 148 r2638 7599210
Encoding settings : cabac=1 / ref=5 / deblock=1:-2:-2 / analyse=0x3:0x133 / me=umh / subme=10 / psy=1 / psy_rd=1.00:0.20 / mixed_ref=1 / me_range=32 / chroma_me=1 / trellis=2 / 8x8dct=1 / cqm=0 / deadzone=21,11 / fast_pskip=1 / chroma_qp_offset=-3 / threads=6 / lookahead_threads=1 / sliced_threads=0 / nr=0 / decimate=1 / interlaced=0 / bluray_compat=0 / constrained_intra=0 / bframes=10 / b_pyramid=2 / b_adapt=2 / b_bias=0 / direct=3 / weightb=1 / open_gop=0 / weightp=2 / keyint=250 / keyint_min=23 / scenecut=40 / intra_refresh=0 / rc_lookahead=60 / rc=2pass / mbtree=1 / bitrate=5500 / ratetol=1.0 / qcomp=0.60 / qpmin=0 / qpmax=69 / qpstep=4 / cplxblur=20.0 / qblur=0.5 / ip_ratio=1.40 / aq=1:1.00
Language : English
Default : Yes
Forced : No
Audio #1
ID : 2
Format : AC-3
Format/Info : Audio Coding 3
Codec ID : A_AC3
Duration : 1 h 29 min
Bit rate mode : Constant
Bit rate : 384 kb/s
Channel(s) : 6 channels
Channel positions : Front: L C R, Side: L R, LFE
Sampling rate : 48.0 kHz
Frame rate : 31.250 FPS (1536 SPF)
Bit depth : 16 bits
Compression mode : Lossy
Stream size : 245 MiB (6%)
Language : Russian
Service kind : Complete Main
Default : Yes
Forced : No
Audio #2
ID : 3
Format : AC-3
Format/Info : Audio Coding 3
Codec ID : A_AC3
Duration : 1 h 29 min
Bit rate mode : Constant
Bit rate : 384 kb/s
Channel(s) : 6 channels
Channel positions : Front: L C R, Side: L R, LFE
Sampling rate : 48.0 kHz
Frame rate : 31.250 FPS (1536 SPF)
Bit depth : 16 bits
Compression mode : Lossy
Stream size : 245 MiB (6%)
Language : English
Service kind : Complete Main
Default : No
Forced : No
Menu
00:00:00.000 : en:1
00:05:27.452 : en:2
00:10:09.233 : en:3
00:15:30.846 : en:4
00:23:34.204 : en:5
00:27:09.002 : en:6
00:34:20.600 : en:7
00:41:05.880 : en:8
00:44:15.319 : en:9
00:49:40.602 : en:10
00:55:54.267 : en:11
00:59:31.901 : en:12
01:05:35.931 : en:13
01:12:20.335 : en:14
01:16:37.842 : en:15
01:21:58.412 : en:16

Скриншоты

[Профиль] [ЛС]
Кто просматривает тему:

Форум Тема Автор Размер
Cборники 70х-80х-90х (Ретро) (Pop, Disco) VA - Самая Большая Дискотека 300 хитов - 2015, MP3, 320 kbps Magnat 2.66 GB
Rock (Rock) Пикник - Большая игра (3CD) - 2015 [FLAC, image +.cue, lossless] sergej644 1.19 GB
BBC BBC: Большое железнодорожное путешествие по континенту / Great Continental Railway Journeys [сезон 4 серии 1-6 из 6] (Dave Minchin) [2015 г., Документальный, история, путешествия, HDTVRip 720p] skorpionN 8.85 GB
BBC BBC: Преступники Британии. Разбойники с большой дороги, пираты и мошенники / Britain's Outlaws. Highwaymen, Pirates and Rogues [серии 1-3 из 3] (Andy Hall, Matthew Thomas, Gerry Dawson) [201... skorpionN 5.42 GB
Доисторический мир BBC: Прогулки с динозаврами: Баллада о большом Але (спецвыпуск) / Walking With Dinosaurs: The Ballad Of Big Al [серии 1-2 из 2] (Кейт Бартлетт, Майкл Олмерт) [2000 г., Документальный, и... skorpionN 1.97 GB
Discovery Discovery. Большая нефть Ирака / Mega oil Iraq [серии 1-4 из 4] (Дэвид Херман) [2015 г., Документальный, познавательный, HDTVRip 720p] ZeNArD 1.85 GB
History History: Большая история / Big History (Джеймс Грант Голдин / James Grant Goldin) [2013, Документально-постановочный, история, HDTVRip 720p] TorrentFilm 13.56 GB
Разное LuckyPatcher 4.4.6 - Патчер к большинству программ и игр (15.08.14) [Ru/Multi] sergej644 4 MB
Показать сообщения:    

Текущее время: Сегодня 22:11

Часовой пояс: GMT



Вы не можете начинать темы
Вы не можете отвечать на сообщения
Вы не можете редактировать свои сообщения
Вы не можете удалять свои сообщения
Вы не можете голосовать в опросах
Вы не можете прикреплять файлы к сообщениям
Вы не можете скачивать файлы