Танго Тони / Tony Tango (2015) WEBRip 720p | GreenРай Studio

 
Автор Сообщение

BOSS ®

Пол:

Стаж: 3 года 9 месяцев

Сообщений: 11149

Откуда: ODESSA



Награды: 22 (Подробнее)

Mega Releaser 1 (Количество: 1) Mega Releaser 4 (Количество: 1) Top Releaser 4 (Количество: 1)
Торрент-статистика

Создавать темы 06-Июл-2018 15:28

[Цитировать]

Информация о фильме
Год выхода: 2015
Наименование: Танго Тони
Оригинальное наименование: Tony Tango
Страна: США
Жанр: комедия
Режиссер постановщик: Маноло Сели
В главных ролях: Макс Молион, Андрес Де Оливейра, Энтони Короне, Джерри Перес, Сергия Луиза Андерсон, Елена Мария Гарсиа, Сараи Диас, Энрике Сапене, Уэйн Легет, Кристина Лопес II
О фильме: Тони - инструктор по латиноамериканским танцам с высоким уровнем холестерина и еще более высокой верой в собственную сексуальную привлекательность. Он большая рыба в маленьком пруду своих пожилых учеников. Но когда танцевальная студия семьи оказывается под угрозой попасть в руки своего заклятого врага, самоуверенного религиозного фанатика Диего, Тони вынужден конкурировать с большими мальчиками и большими ставками. Чтобы сделать это, ему понадобится помощь его тренера Сэма, опальной экс-легенды танцев, и его партнерши - красивой, но высокомерной Елены, которая злится на Тони за его трагичный урок танцев с ее бабушкой.

Файл
Качество: WEBRip 720p
Видео данные: MKV, 1280x720 (16:9), 23.976 fps, 3478 Кбит/с
Аудио данные: AAC, 2 ch, 192 Кбит/с
Перевод: Любительский многоголосый (GreenРай Studio)
Продолжительность: 01:24:52

Медиаинфо

General
Unique ID : 277423126123353051789578326135710563172 (0xD0B5C026725308011BFB2ABCA56E3B64)
Complete name : D:ГРИНРАЙTony.Tango.2015.P.WEB-DL.720p.mkv
Format : Matroska
Format version : Version 4 / Version 2
File size : 2.18 GiB
Duration : 1 h 24 min
Overall bit rate : 3 670 kb/s
Encoded date : UTC 2018-07-05 10:29:00
Writing application : mkvmerge v21.0.0 ('Tardigrades Will Inherit The Earth') 64-bit
Writing library : libebml v1.3.5 + libmatroska v1.4.8
Video
ID : 1
Format : AVC
Format/Info : Advanced Video Codec
Format profile : High@L3.1
Format settings : CABAC / 1 Ref Frames
Format settings, CABAC : Yes
Format settings, RefFrames : 1 frame
Format settings, GOP : M=1, N=30
Codec ID : V_MPEG4/ISO/AVC
Duration : 1 h 24 min
Bit rate : 3 478 kb/s
Width : 1 280 pixels
Height : 720 pixels
Display aspect ratio : 16:9
Frame rate mode : Constant
Frame rate : 23.976 (24000/1001) FPS
Color space : YUV
Chroma subsampling : 4:2:0
Bit depth : 8 bits
Scan type : Progressive
Bits/(Pixel*Frame) : 0.157
Stream size : 2.06 GiB (95%)
Language : English
Default : Yes
Forced : No
Audio
ID : 2
Format : AAC
Format/Info : Advanced Audio Codec
Format profile : LC
Codec ID : A_AAC-2
Duration : 1 h 24 min
Bit rate : 192 kb/s
Channel(s) : 2 channels
Channel positions : Front: L R
Sampling rate : 48.0 kHz
Frame rate : 46.875 FPS (1024 SPF)
Compression mode : Lossy
Stream size : 115 MiB (5%)
Language : English
Default : Yes
Forced : No
Внимание, имеется видео и аудио реклама от спонсора показа

Скриншоты

Релиз от:
[Профиль] [ЛС]
Показать сообщения:    

Текущее время: Сегодня 22:10

Часовой пояс: GMT



Вы не можете начинать темы
Вы не можете отвечать на сообщения
Вы не можете редактировать свои сообщения
Вы не можете удалять свои сообщения
Вы не можете голосовать в опросах
Вы не можете прикреплять файлы к сообщениям
Вы не можете скачивать файлы