Пути и путы / Rails & Ties (2007) WEB-DL 1080p | P

 
Автор Сообщение

BOSS ®

Пол:

Стаж: 3 года 9 месяцев

Сообщений: 11149

Откуда: ODESSA



Награды: 22 (Подробнее)

Mega Seeder 4 (Количество: 1) Top Releaser 2 (Количество: 1) Mega Releaser 4 (Количество: 1)
Торрент-статистика

Создавать темы 06-Июл-2018 15:26

[Цитировать]

Информация о фильме
Название: Пути и путы
Оригинальное название: Rails & Ties
Год выхода: 2007
Жанр: Драма
Режиссер: Элисон Иствуд
В ролях: Кевин Бэйкон, Марша Гей Харден, Майлс Хейзер, Марин Хинкль, Юджин Бирд, Бонни Рут, Стив Истен, Лаура Серон, Марго Мартиндейл, Кэтрин Жустин
О фильме:
Картина рассказывает о Томе Старке, машинисте поезда, столкнувшегося с оказавшейся на путях машиной. В результате инцидента женщина, сидевшая за рулем автомобиля, погибает, а ее уцелевший сын Дэйви во всем случившемся винит только машиниста. Том и его жена Меган решают усыновить сироту…

Страна: США
Студия: Malpaso Productions
Продолжительность: 01:40:47
Перевод: Профессиональный многоголосый (Пифагор)
Файл
Кодек: x264
Качество: WEB-DL 1080p
Видео: MPEG-4 AVC, 9145 Кбит/с, 1920x1080
Звук #1: AC3, 6 ch, 384 Кбит/с | Rus
Звук #2: EAC3, 6 ch, 640 Кбит/с | Eng
Субтитры: Русские, английские

Скриншоты

Инфо-файл

Формат : Matroska
Версия формата : Version 2
Размер файла : 7,30 Гбайт
Продолжительность : 1 ч. 40 м.
Режим общего битрейта : Переменный
Общий поток : 10,4 Мбит/сек
Название фильма : Rails.and.Ties.2007.1080p.AMZN.WEB-DL.by.zzZGVvv
Дата кодирования : UTC 2018-07-05 15:36:00
Программа кодирования : mkvmerge v5.8.0 ('No Sleep / Pillow') built on Sep 2 2012 15:37:04
Библиотека кодирования : libebml v1.2.3 + libmatroska v1.3.0
Attachements : cover.jpg
Видео
Идентификатор : 1
Формат : AVC
Формат/Информация : Advanced Video Codec
Профиль формата : High@L4
Параметр CABAC формата : Да
Параметр ReFrames формата : 4 кадра
Идентификатор кодека : V_MPEG4/ISO/AVC
Продолжительность : 1 ч. 40 м.
Вид битрейта : Переменный
Битрейт : 9145 Кбит/сек
Максимальный битрейт : 15,0 Мбит/сек
Ширина : 1920 пикселей
Высота : 1080 пикселей
Соотношение сторон : 16:9
Режим частоты кадров : Постоянный
Частота кадров : 23,976 кадра/сек
Цветовое пространство : YUV
Субдискретизация насыщенности : 4:2:0
Битовая глубина : 8 бит
Тип развёртки : Прогрессивная
Бит/(Пиксели*Кадры) : 0.184
Размер потока : 6,44 Гбайт (88%)
Заголовок : Rails.and.Ties.2007.1080p.AMZN.WEB-DL
Библиотека кодирования : x264 core 148 r2623 d5b2374
Настройки программы : cabac=1 / ref=4 / deblock=1:-1:-1 / analyse=0x3:0x133 / me=umh / subme=9 / psy=1 / psy_rd=1.00:0.15 / mixed_ref=1 / me_range=24 / chroma_me=1 / trellis=2 / 8x8dct=1 / cqm=0 / deadzone=21,11 / fast_pskip=1 / chroma_qp_offset=-3 / threads=34 / lookahead_threads=5 / sliced_threads=0 / nr=150 / decimate=1 / interlaced=0 / bluray_compat=0 / constrained_intra=0 / bframes=8 / b_pyramid=2 / b_adapt=2 / b_bias=0 / direct=3 / weightb=1 / open_gop=0 / weightp=2 / keyint=120 / keyint_min=61 / scenecut=0 / intra_refresh=0 / rc_lookahead=120 / rc=crf / mbtree=1 / crf=18.0 / qcomp=0.60 / qpmin=0 / qpmax=69 / qpstep=4 / vbv_maxrate=15000 / vbv_bufsize=31250 / crf_max=0.0 / nal_hrd=vbr / filler=0 / ip_ratio=1.40 / aq=3:1.00
Язык : English
Default : Да
Forced : Нет
Цветовой диапазон : Limited
Основные цвета : BT.709
Характеристики трансфера : BT.709
Коэффициенты матрицы : BT.709
Аудио #1
Идентификатор : 2
Формат : AC-3
Формат/Информация : Audio Coding 3
Расширение режима : CM (complete main)
Параметр Endianness формата : Big
Идентификатор кодека : A_AC3
Продолжительность : 1 ч. 40 м.
Вид битрейта : Постоянный
Битрейт : 384 Кбит/сек
Каналы : 6 каналов
Расположение каналов : Front: L C R, Side: L R, LFE
Частота : 48,0 КГц
Метод сжатия : С потерями
Размер потока : 277 Мбайт (4%)
Заголовок : MVO (Пифагор)
Язык : Russian
Default : Да
Forced : Нет
Аудио #2
Идентификатор : 3
Формат : E-AC-3
Формат/Информация : Audio Coding 3
Параметр Endianness формата : Big
Идентификатор кодека : A_EAC3
Продолжительность : 1 ч. 40 м.
Вид битрейта : Постоянный
Битрейт : 640 Кбит/сек
Каналы : 6 каналов
Расположение каналов : Front: L C R, Side: L R, LFE
Частота : 48,0 КГц
Метод сжатия : С потерями
Размер потока : 461 Мбайт (6%)
Язык : English
Default : Нет
Forced : Нет
Текст #1
Идентификатор : 4
Формат : UTF-8
Идентификатор кодека : S_TEXT/UTF8
Идентификатор кодека/Информация : UTF-8 Plain Text
Язык : Russian
Default : Нет
Forced : Нет
Текст #2
Идентификатор : 5
Формат : UTF-8
Идентификатор кодека : S_TEXT/UTF8
Идентификатор кодека/Информация : UTF-8 Plain Text
Язык : English
Default : Нет
Forced : Нет
Текст #3
Идентификатор : 6
Формат : UTF-8
Идентификатор кодека : S_TEXT/UTF8
Идентификатор кодека/Информация : UTF-8 Plain Text
Заголовок : SDH
Язык : English
Default : Нет
Forced : Нет
Меню
00:00:00.000 : en:Sad news.
00:04:56.012 : en:To make us happy.
00:09:12.012 : en:Brace for impact.
00:11:52.012 : en:Complicated situation.
00:17:00.012 : en:Dealing with death.
00:21:51.012 : en:Way things worked out.
00:25:01.012 : en:Runaway.
00:28:55.012 : en:Giving up.
00:36:37.012 : en:Please don't go.
00:39:34.012 : en:Let him stay.
00:43:28.012 : en:I had to know.
00:48:26.012 : en:Turnaround.
00:52:43.012 : en:It feels good.
00:55:38.012 : en:Threesome.
01:01:45.012 : en:Pretending.
01:04:40.012 : en:I forgive you.
01:10:44.012 : en:Gray area.
01:12:23.012 : en:Unwanted visitor.
01:17:25.012 : en:No regrets.
01:20:54.012 : en:The hearing.
01:23:33.012 : en:God's punishment.
01:27:52.012 : en:Final promise.
01:32:28.012 : en:In this together.
01:37:00.012 : en:End Credits.
[Профиль] [ЛС]
Кто просматривает тему:

Показать сообщения:    

Текущее время: Сегодня 22:01

Часовой пояс: GMT



Вы не можете начинать темы
Вы не можете отвечать на сообщения
Вы не можете редактировать свои сообщения
Вы не можете удалять свои сообщения
Вы не можете голосовать в опросах
Вы не можете прикреплять файлы к сообщениям
Вы не можете скачивать файлы