Бегущий по лезвию / Blade Runner (1982) BDRip 1080p | Финальная версия | D, P, P2, A, L1

 
Автор Сообщение

Swager ®

Пол:

Стаж: 2 года 10 месяцев

Сообщений: 1602



Награды: 4 (Подробнее)

За внесенный вклад в развитие сайта (Количество: 1) Mega Seeder 1 (Количество: 1) Top Releaser 2 (Количество: 1)
Торрент-статистика

Создавать темы 14-Июн-2018 08:04

[Цитировать]

Информация о фильме
Название: Бегущий по лезвию (Финальная версия)
Оригинальное название: Blade Runner (Final Cut)
Год выхода: 1982
Жанр: Фантастика, триллер, драма, мелодрама, антиутопия, экранизация
Режиссер: Ридли Скотт
В ролях: Харрисон Форд, Брайон Джеймс, Джоанна Кэссиди, Эдвард Джеймс Олмос, Уильям Сэндерсон, Джо Теркел, Дэрил Ханна, Рутгер Хауэр, Джеймс Хонг, Шон Янг, Морган Полл, Кимико Хирошиге, Боб Оказаки, Джон Эдвард Аллен, Хай Пайк, М. Эммет Уолш, Джудит Барнетт, Чарлз Кнэпп, Алексис Ри, Лео Горси мл.
О фильме:
Отставной детектив Рик Декард вновь восстановлен в полиции Лос-Анджелеса для поиска возглавляемой Роем Батти группы киборгов, совершившей побег из космической колонии на Землю. В полиции считают, что киборги пытаются встретиться с Эндолом Тайреллом, руководителем корпорации, ставящей эксперименты над кибернетическим интеллектом. Рик Декард получает задание выяснить мотивы действий киборгов, а затем уничтожить их... По роману Филипа К. Дика "Мечтают ли андроиды об электроовцах?»

Страна: США, Гонконг
Студия: Norman Lear, Tandem Productions, Shaw Brothers (Hong Kong) Limited, The Ladd Company
Продолжительность: 01:57:37
Перевод: Дублированный, профессиональный многоголосый, профессиональный двухголосый, авторский, любительский одноголосый
Файл
Кодек: x264
Качество: BDRip 1080p
Видео: MPEG-4 AVC, 13.3 Мбит/с, 1920x800
Звук #1: AC3, 6 ch, 640 Кбит/с | Профессиональный дублированный (Blu-ray CEE)
Звук #2: DTS, 6 ch, 1536 Кбит/с | Профессиональный многоголосый (Киномания)
Звук #3: DTS, 6 ch, 1536 Кбит/с | Профессиональный двухголосый (Tycoon)
Звук #4: DTS, 6 ch, 1536 Кбит/с | Авторский одноголосый (А. Гаврилов)
Звук #5: DTS, 6 ch, 1536 Кбит/с | Авторский одноголосый (Ю. Живов)
Звук #6: AC3, 6 ch, 448 Кбит/с | Авторский одноголосый (П. Карцев)
Звук #7: DTS, 6 ch, 768 Кбит/с | Любительский одноголосый (А. Попов)
Звук #8: DTS, 6 ch, 1536 Кбит/с | Авторский одноголосый (А. Матвеев)
Звук #9: AC3, 6 ch, 448 Кбит/с | Авторский одноголосый (Д. Есарев)
Звук #10: AC3, 6 ch, 448 Кбит/с | Любительский одноголосый (В. Завгородний)
Звук #11: AC3, 2 ch, 192 Кбит/с | Любительский одноголосый(К. Поздняков)
Звук #12: DTS, 6 ch, 1536 Кбит/с | Eng
Субтитры: Русские, английские

Скриншоты

MI

Формат : Matroska
Версия формата : Version 2
Размер файла : 20,8 Гбайт
Продолжительность : 1 ч. 57 м.
Общий поток : 25,3 Мбит/сек
Название фильма : Blade.Runner.1982.Final.Cut.1080p.BluRay.by.zzZGVvv
Дата кодирования : UTC 2018-06-13 18:56:16
Программа кодирования : mkvmerge v5.8.0 ('No Sleep / Pillow') built on Sep 2 2012 15:37:04
Библиотека кодирования : libebml v1.2.3 + libmatroska v1.3.0
Attachements : cover.jpg
Видео
Идентификатор : 1
Формат : AVC
Формат/Информация : Advanced Video Codec
Профиль формата : High@L4.1
Параметр CABAC формата : Да
Параметр ReFrames формата : 5 кадров
Идентификатор кодека : V_MPEG4/ISO/AVC
Продолжительность : 1 ч. 57 м.
Битрейт : 13,3 Мбит/сек
Ширина : 1920 пикселей
Высота : 800 пикселей
Соотношение сторон : 2,40:1
Режим частоты кадров : Постоянный
Частота кадров : 23,976 кадра/сек
Цветовое пространство : YUV
Субдискретизация насыщенности : 4:2:0
Битовая глубина : 8 бит
Тип развёртки : Прогрессивная
Бит/(Пиксели*Кадры) : 0.362
Размер потока : 10,6 Гбайт (51%)
Библиотека кодирования : x264 core 120 r2164 da19765
Настройки программы : cabac=1 / ref=5 / deblock=1:-3:-3 / analyse=0x3:0x113 / me=umh / subme=9 / psy=1 / psy_rd=1.00:0.15 / mixed_ref=0 / me_range=52 / chroma_me=1 / trellis=2 / 8x8dct=1 / cqm=0 / deadzone=21,11 / fast_pskip=0 / chroma_qp_offset=-3 / threads=6 / sliced_threads=0 / nr=0 / decimate=1 / interlaced=0 / bluray_compat=0 / constrained_intra=0 / bframes=9 / b_pyramid=2 / b_adapt=1 / b_bias=0 / direct=1 / weightb=1 / open_gop=0 / weightp=2 / keyint=240 / keyint_min=23 / scenecut=50 / intra_refresh=0 / rc_lookahead=120 / rc=2pass / mbtree=1 / bitrate=13349 / ratetol=1.0 / qcomp=0.60 / qpmin=0 / qpmax=69 / qpstep=4 / cplxblur=20.0 / qblur=0.5 / vbv_maxrate=48000 / vbv_bufsize=40000 / nal_hrd=none / ip_ratio=1.40 / aq=1:1.20
Язык : English
Default : Да
Forced : Нет
Аудио #1
Идентификатор : 2
Формат : AC-3
Формат/Информация : Audio Coding 3
Расширение режима : CM (complete main)
Параметр Endianness формата : Big
Идентификатор кодека : A_AC3
Продолжительность : 1 ч. 57 м.
Вид битрейта : Постоянный
Битрейт : 640 Кбит/сек
Каналы : 6 каналов
Расположение каналов : Front: L C R, Side: L R, LFE
Частота : 48,0 КГц
Метод сжатия : С потерями
Размер потока : 538 Мбайт (3%)
Заголовок : Dub | Лицензия
Язык : Russian
Default : Да
Forced : Нет
Аудио #2
Идентификатор : 3
Формат : DTS
Формат/Информация : Digital Theater Systems
Режим : 16
Параметр Endianness формата : Big
Идентификатор кодека : A_DTS
Продолжительность : 1 ч. 57 м.
Вид битрейта : Постоянный
Битрейт : 1509 Кбит/сек
Каналы : 6 каналов
Расположение каналов : Front: L C R, Side: L R, LFE
Частота : 48,0 КГц
Битовая глубина : 24 бит
Метод сжатия : С потерями
Размер потока : 1,24 Гбайт (6%)
Заголовок : MVO | Киномания
Язык : Russian
Default : Нет
Forced : Нет
Аудио #3
Идентификатор : 4
Формат : DTS
Формат/Информация : Digital Theater Systems
Режим : 16
Параметр Endianness формата : Big
Идентификатор кодека : A_DTS
Продолжительность : 1 ч. 57 м.
Вид битрейта : Постоянный
Битрейт : 1510 Кбит/сек
Каналы : 6 каналов
Расположение каналов : Front: L C R, Side: L R, LFE
Частота : 48,0 КГц
Битовая глубина : 24 бит
Метод сжатия : С потерями
Размер потока : 1,24 Гбайт (6%)
Заголовок : DVO | Tycoon
Язык : Russian
Default : Нет
Forced : Нет
Аудио #4
Идентификатор : 5
Формат : DTS
Формат/Информация : Digital Theater Systems
Режим : 16
Параметр Endianness формата : Big
Идентификатор кодека : A_DTS
Продолжительность : 1 ч. 57 м.
Вид битрейта : Постоянный
Битрейт : 1509 Кбит/сек
Каналы : 6 каналов
Расположение каналов : Front: L C R, Side: L R, LFE
Частота : 48,0 КГц
Битовая глубина : 24 бит
Метод сжатия : С потерями
Размер потока : 1,24 Гбайт (6%)
Заголовок : AVO | А. Гаврилов
Язык : Russian
Default : Нет
Forced : Нет
Аудио #5
Идентификатор : 6
Формат : DTS
Формат/Информация : Digital Theater Systems
Режим : 16
Параметр Endianness формата : Big
Идентификатор кодека : A_DTS
Продолжительность : 1 ч. 57 м.
Вид битрейта : Постоянный
Битрейт : 1509 Кбит/сек
Каналы : 6 каналов
Расположение каналов : Front: L C R, Side: L R, LFE
Частота : 48,0 КГц
Битовая глубина : 24 бит
Метод сжатия : С потерями
Размер потока : 1,24 Гбайт (6%)
Заголовок : AVO | Ю. Живов
Язык : Russian
Default : Нет
Forced : Нет
Аудио #6
Идентификатор : 7
Формат : AC-3
Формат/Информация : Audio Coding 3
Расширение режима : CM (complete main)
Параметр Endianness формата : Big
Идентификатор кодека : A_AC3
Продолжительность : 1 ч. 57 м.
Вид битрейта : Постоянный
Битрейт : 448 Кбит/сек
Каналы : 6 каналов
Расположение каналов : Front: L C R, Side: L R, LFE
Частота : 48,0 КГц
Метод сжатия : С потерями
Размер потока : 377 Мбайт (2%)
Заголовок : AVO | П. Карцев
Язык : Russian
Default : Нет
Forced : Нет
Аудио #7
Идентификатор : 8
Формат : DTS
Формат/Информация : Digital Theater Systems
Режим : 16
Параметр Endianness формата : Big
Идентификатор кодека : A_DTS
Продолжительность : 1 ч. 57 м.
Вид битрейта : Постоянный
Битрейт : 768 Кбит/сек
Каналы : 6 каналов
Расположение каналов : Front: L C R, Side: L R, LFE
Частота : 48,0 КГц
Битовая глубина : 24 бит
Метод сжатия : С потерями
Размер потока : 646 Мбайт (3%)
Заголовок : AVO | А. Попов
Язык : Russian
Default : Нет
Forced : Нет
Аудио #8
Идентификатор : 9
Формат : DTS
Формат/Информация : Digital Theater Systems
Режим : 16
Параметр Endianness формата : Big
Идентификатор кодека : A_DTS
Продолжительность : 1 ч. 57 м.
Вид битрейта : Постоянный
Битрейт : 1509 Кбит/сек
Каналы : 6 каналов
Расположение каналов : Front: L C R, Side: L R, LFE
Частота : 48,0 КГц
Битовая глубина : 24 бит
Метод сжатия : С потерями
Размер потока : 1,24 Гбайт (6%)
Заголовок : AVO | А. Матвеев
Язык : Russian
Default : Нет
Forced : Нет
Аудио #9
Идентификатор : 10
Формат : AC-3
Формат/Информация : Audio Coding 3
Расширение режима : CM (complete main)
Параметр Endianness формата : Big
Идентификатор кодека : A_AC3
Продолжительность : 1 ч. 57 м.
Вид битрейта : Постоянный
Битрейт : 448 Кбит/сек
Каналы : 6 каналов
Расположение каналов : Front: L C R, Side: L R, LFE
Частота : 48,0 КГц
Метод сжатия : С потерями
Размер потока : 377 Мбайт (2%)
Заголовок : AVO | Д. Есарев
Язык : Russian
Default : Нет
Forced : Нет
Аудио #10
Идентификатор : 11
Формат : AC-3
Формат/Информация : Audio Coding 3
Расширение режима : CM (complete main)
Параметр Endianness формата : Big
Идентификатор кодека : A_AC3
Продолжительность : 1 ч. 57 м.
Вид битрейта : Постоянный
Битрейт : 448 Кбит/сек
Каналы : 6 каналов
Расположение каналов : Front: L C R, Side: L R, LFE
Частота : 48,0 КГц
Метод сжатия : С потерями
Размер потока : 377 Мбайт (2%)
Заголовок : AVO | В. Завгородний
Язык : Russian
Default : Нет
Forced : Нет
Аудио #11
Идентификатор : 12
Формат : AC-3
Формат/Информация : Audio Coding 3
Расширение режима : CM (complete main)
Параметр Endianness формата : Big
Идентификатор кодека : A_AC3
Продолжительность : 1 ч. 57 м.
Вид битрейта : Постоянный
Битрейт : 192 Кбит/сек
Каналы : 2 канала
Расположение каналов : Front: L R
Частота : 48,0 КГц
Метод сжатия : С потерями
Размер потока : 162 Мбайт (1%)
Заголовок : AVO | К. Поздняков
Язык : Russian
Default : Нет
Forced : Нет
Аудио #12
Идентификатор : 13
Формат : DTS
Формат/Информация : Digital Theater Systems
Режим : 16
Параметр Endianness формата : Big
Идентификатор кодека : A_DTS
Продолжительность : 1 ч. 57 м.
Вид битрейта : Постоянный
Битрейт : 1509 Кбит/сек
Каналы : 6 каналов
Расположение каналов : Front: L C R, Side: L R, LFE
Частота : 48,0 КГц
Битовая глубина : 24 бит
Метод сжатия : С потерями
Размер потока : 1,24 Гбайт (6%)
Язык : English
Default : Нет
Forced : Нет
Текст #1
Идентификатор : 14
Формат : UTF-8
Идентификатор кодека : S_TEXT/UTF8
Идентификатор кодека/Информация : UTF-8 Plain Text
Язык : Russian
Default : Нет
Forced : Нет
Текст #2
Идентификатор : 15
Формат : UTF-8
Идентификатор кодека : S_TEXT/UTF8
Идентификатор кодека/Информация : UTF-8 Plain Text
Язык : English
Default : Нет
Forced : Нет
Текст #3
Идентификатор : 16
Формат : UTF-8
Идентификатор кодека : S_TEXT/UTF8
Идентификатор кодека/Информация : UTF-8 Plain Text
Заголовок : SDH
Язык : English
Default : Нет
Forced : Нет
Меню
00:00:00.000 : en:Credits and Forward
00:02:58.178 : en:Eye on the City
00:04:31.980 : en:Leon's Emotional Response
00:07:25.111 : en:Street Scene; Interrupted Sushi
00:11:18.261 : en:The Old Blade Runner Magic
00:12:58.569 : en:The Replicants in Question
00:16:58.184 : en:Rachael; the Voight-Kampff Test
00:22:38.816 : en:Leon's Apartment
00:25:04.878 : en:Chew's Visitors
00:27:58.343 : en:If Only You Could See...
00:30:21.486 : en:A Visitor with Someone Else's Memories
00:36:19.177 : en:Pris Meets Sebastian
00:41:30.321 : en:Deckard's Dream
00:42:24.000 : en:Computer Photo Scan
00:45:56.337 : en:Manufactured Skin
00:48:44.463 : en:Miss Salome's Dressing Room
00:55:18.899 : en:Pursuing Zhora
00:57:27.277 : en:Retirement...Witnessed
00:59:44.998 : en:How Many to Go?
01:01:49.414 : en:Wake Up. Time to Die.
01:03:16.001 : en:I Am the Business. I Owe You One.
01:07:44.394 : en:The Real Thing?
01:12:39.522 : en:There's Only Two of Us Now.
01:16:13.527 : en:We Need You, Sebastian.
01:20:12.474 : en:The Right Moves
01:22:34.533 : en:The Prodigal Son Brings Death
01:27:07.514 : en:No Way to Treat a Friend
01:28:45.237 : en:Death Among the Menagerie
01:34:02.220 : en:Proud of Yourself, Little Man?
01:36:54.308 : en:Wounded Animals
01:41:12.316 : en:The Building Ledge
01:42:37.276 : en:The Roof
01:44:31.807 : en:To Live in Fear
01:45:56.267 : en:Like Tears in Rain. But Then Again, Who Does?
01:49:04.496 : en:Souvenir of Dreams
01:52:21.735 : en:End Credits
[Профиль] [ЛС]
Кто просматривает тему:

Форум Тема Автор Размер
Фильмы 2016 года Бегущая от реальности / Complete Unknown (2016) BDRip | iTunes BOSS 1.42 GB
Фильмы (HD Rips | 720p, 1080p) Бегущий в лабиринте / The Maze Runner (2014) BDRip 1080p | iTunes sergej644 8.02 GB
Фильмы (HD Rips | 720p, 1080p) Бегущий в лабиринте / The Maze Runner (2014) BDRip [1080p] sergej644 11.85 GB
Фильмы (HD Rips | 720p, 1080p) Бегущий в лабиринте / The Maze Runner (2014) BDRip-AVC от R.G. HD-Films | 60 fps | Лицензия sergej644 3.82 GB
Ultra HD (UHD: 2K,4K, 8K) — видео сверхвысокой чёткости Бегущий в лабиринте / The Maze Runner (2014) UHD BDRemux 2160p | 4K | HDR | D, A | Лицензия BOSS 41.24 GB
Фильмы 2014 года Бегущий в лабиринте / The Maze Runner (Уэс Болл / Wes Ball) [2014, США, Великобритания, Канада, фантастика, триллер, приключения, BDRip-AVC] Dub (Rus) + Dub (Urk) + Original (Eng) + Subs TorrentFilm 2.61 GB
Фильмы 2014 года Бегущий в лабиринте / The Maze Runner (Уэс Болл / Wes Ball) [2014, США, Великобритания, Канада, фантастика, триллер, приключения, BDRip-AVC] Dub + Dub Ukr + Sub Rus, Ukr, Eng + Original Eng TorrentFilm 2.27 GB
Фильмы 2014 года Бегущий в лабиринте / The Maze Runner (Уэс Болл / Wes Ball) [2014, США, Великобритания, Канада, Фантастика, триллер, приключения, BDRip-AVC] Dub + Sub Rus,Eng + Original Eng TorrentFilm 2.74 GB
Показать сообщения:    

Текущее время: Сегодня 16:30

Часовой пояс: GMT



Вы не можете начинать темы
Вы не можете отвечать на сообщения
Вы не можете редактировать свои сообщения
Вы не можете удалять свои сообщения
Вы не можете голосовать в опросах
Вы не можете прикреплять файлы к сообщениям
Вы не можете скачивать файлы