Рейс 666 / Flight 666 (2018) WEBRip 720p | L2

 
Author Message

BOSS ®

Gender:

Longevity: 4 years 7 months

Posts: 14094

Location: ODESSA



: 22 ()

Mega Releaser 4 (1) Mega Seeder 2 (1) Top Keeper 4 (1)
Торрент-статистика

Post 12-Jun-2018 16:40

[Quote]

Информация о фильме
Название: Рейс 666
Оригинальное название: Flight 666
Год выхода: 2018
Жанр: Ужасы
Режиссер: Роб Палатин
В ролях: Рене Уиллетт, Пол Логан, Лиз Феннинг, Хосе Розете, Джозеф Майкл Харрис, Джесси Джеймс Д'Анджело, Джастин Хоффмайстер, Кларисса Тибо, Брендан Петриццо, Грег Фурман, Шамар Филипп, Элизабет Хардинг, Сет Ракос, Мэтью Рили, Шарон Дезире и другие
О фильме:
Пассажиров и экипаж самолета терроризируют потусторонние силы, которые угрожают жизни всех на борту. В борьбе за свою жизнь люди понимают, что это дело рук призраков, которые хотят отомстить своему убийце, но тот сделает все, чтобы остаться в живых.

Страна: США, Asylum
Продолжительность: 01:29:41
Перевод: Любительский (двухголосый закадровый) | HiWay Grope
Файл
Кодек: MPEG-4 AVC/x.264
Качество: WEBRip 720p
Видео: 1280x718, 23.976 fps, ~3124 kbps, 0.142 bit/pixel
Звук:
Аудио rus: AC3, 48 kHz, 6 ch, 384 Kbps
Субтитры: отсутствуют
Реклама: присутствует
Семпл

MediaInfo:

General
Unique ID : 43142852492322350308683837401031061032 (0x207502DABC0C1E517A851DF561A52E28)
Complete name : E:Flight 666.2018.720p.WEBRip.HiWayGropeFlight 666.2018.720p.WEBRip.HiWayGrope.mkv
Format : Matroska
Format version : Version 4 / Version 2
File size : 2.24 GiB
Duration : 1h 29mn
Overall bit rate : 3 579 Kbps
Encoded date : UTC 2018-06-12 07:45:26
Writing application : mkvmerge v21.0.0 ('Tardigrades Will Inherit The Earth') 64-bit
Writing library : libebml v1.3.5 + libmatroska v1.4.8
Video
ID : 1
Format : AVC
Format/Info : Advanced Video Codec
Format profile : Main@L4.1
Format settings, CABAC : Yes
Format settings, ReFrames : 4 frames
Codec ID : V_MPEG4/ISO/AVC
Duration : 1h 29mn
Bit rate : 3 124 Kbps
Width : 1 280 pixels
Height : 718 pixels
Display aspect ratio : 16:9
Frame rate mode : Constant
Frame rate : 23.976 (24000/1001) fps
Standard : NTSC
Color space : YUV
Chroma subsampling : 4:2:0
Bit depth : 8 bits
Scan type : Progressive
Bits/(Pixel*Frame) : 0.142
Stream size : 1.96 GiB (87%)
Language : English
Default : Yes
Forced : No
Color range : Limited
Color primaries : BT.709
Transfer characteristics : BT.709
Matrix coefficients : BT.709
Audio
ID : 2
Format : AC-3
Format/Info : Audio Coding 3
Mode extension : CM (complete main)
Format settings, Endianness : Big
Codec ID : A_AC3
Duration : 1h 29mn
Bit rate mode : Constant
Bit rate : 384 Kbps
Channel(s) : 6 channels
Channel positions : Front: L C R, Side: L R, LFE
Sampling rate : 48.0 KHz
Frame rate : 31.250 fps (1536 spf)
Compression mode : Lossy
Stream size : 246 MiB (11%)
Language : Russian
Default : Yes
Forced : No

Скриншоты

Релиз от: HiWay Grope
[Profile] [PM]
Кто просматривает тему:

Forum Topic Author Size
Фильмы 2018 года Рейс 666 / Flight 666 (2018) WEBRip | L2 BOSS 1.37 GB
Display posts from previous:    

The time now is: Today 11:22

All times are GMT



You cannot post new topics in this forum
You cannot reply to topics in this forum
You cannot edit your posts in this forum
You cannot delete your posts in this forum
You cannot vote in polls in this forum
You cannot attach files in this forum
You cannot download files in this forum