Полночное солнце / Midnight Sun (2018) BDRip 720p | iTunes

 
Автор Сообщение

BOSS ®

Пол:

Стаж: 4 года 1 месяц

Сообщений: 12442

Откуда: ODESSA



Награды: 22 (Подробнее)

Top Releaser 3 (Количество: 1) Mega Releaser 3 (Количество: 1) Top Keeper 2 (Количество: 1)
Торрент-статистика

Создавать темы 12-Июн-2018 16:39

[Цитировать]

Информация о фильме
Название: Полночное солнце
Оригинальное название: Midnight Sun
Год выхода: 2018
Жанр: Драма, мелодрама
Режиссер: Скотт Спир
В ролях: Белла Торн, Патрик Шварценеггер, Роб Риггл, Куинн Шепард, Кен Тремблетт, Джен Гриффин, Николас Кумбе, Тиера Сковбай, Пол МакДжиллион, Остин Обиаджунва
О фильме: Ночами 17-летняя Кэти сочиняет красивые песни под гитару, а днем она вынуждена скрываться во мраке: её нежная кожа не выносит солнечного света. Но однажды в полночь Кэти знакомится с Чарли, веселым парнем с копной рыжих как солнце волос и очаровательной улыбкой. Внезапная и страстная любовь яркой вспышкой озаряет жизнь больной девушки. И теперь ради возлюбленного она готова сгореть в лучах света безумного чувства.

Выпущено: США / Boies/Schiller Film Group, Мосфильм-Мастер
Продолжительность: 01:31:52
Озвучивание: Дублированное [iTunes]
Файл
Формат: MKV
Качество: BDRip 720p | MT
Видео: MPEG-4 AVC, 4433 kb/s, 1280x534
Аудио: Russian: AC3, 384 kb/s (6 ch) / English: AC3, 640 kb/s (6 ch)
Субтитры: Английские

MI

Общее
Уникальный идентификатор : 188549109899668691374642091774328165279 (0x8DD93CD839A01523A95F8D81A3FFD39F)
Полное имя : D:ЗаготовкиMidnight.Sun.2018.D.BDRip.720p.mkv
Формат : Matroska
Версия формата : Version 2
Размер файла : 3,57 Гбайт
Продолжительность : 1 ч. 31 м.
Общий поток : 5568 Кбит/сек
Дата кодирования : UTC 2018-06-12 07:15:55
Программа кодирования : mkvmerge v7.8.0 ('River Man') 32bit built on Apr 3 2015 12:11:22
Библиотека кодирования : libebml v1.3.1 + libmatroska v1.4.2
Видео
Идентификатор : 1
Формат : AVC
Формат/Информация : Advanced Video Codec
Профиль формата : High@L4.1
Настройки формата : CABAC / 9 Ref Frames
Параметр CABAC формата : Да
Параметр RefFrames формата : 9 кадров
Идентификатор кодека : V_MPEG4/ISO/AVC
Продолжительность : 1 ч. 31 м.
Битрейт : 4433 Кбит/сек
Ширина : 1280 пикселей
Высота : 534 пикселя
Соотношение сторон : 2,40:1
Режим частоты кадров : Постоянный
Частота кадров : 23,976 (24000/1001) кадра/сек
Цветовое пространство : YUV
Субдискретизация насыщенности : 4:2:0
Битовая глубина : 8 бит
Тип развёртки : Прогрессивная
Бит/(Пиксели*Кадры) : 0.270
Размер потока : 2,84 Гбайт (80%)
Заголовок : MT
Библиотека кодирования : x264 core 155 r2867+82 a249126 t_mod_Custom_2 [8-bit@all X86_64]
Настройки программы : cabac=1 / ref=9 / deblock=1:-3:-3 / analyse=0x3:0x113 / me=umh / subme=10 / psy=1 / fade_compensate=0.00 / psy_rd=1.00:0.05 / mixed_ref=1 / me_range=32 / chroma_me=1 / trellis=2 / 8x8dct=1 / cqm=0 / deadzone=21,11 / fast_pskip=0 / chroma_qp_offset=-2 / threads=12 / lookahead_threads=2 / sliced_threads=0 / nr=0 / decimate=1 / interlaced=0 / bluray_compat=0 / constrained_intra=0 / fgo=0 / bframes=8 / b_pyramid=2 / b_adapt=2 / b_bias=0 / direct=3 / weightb=1 / open_gop=0 / weightp=2 / keyint=250 / keyint_min=23 / scenecut=40 / intra_refresh=0 / rc_lookahead=40 / rc=crf / mbtree=0 / crf=15.0000 / qcomp=0.60 / qpmin=0:0:0 / qpmax=69:69:69 / qpstep=4 / vbv_maxrate=30000 / vbv_bufsize=30000 / crf_max=0.0 / nal_hrd=none / filler=0 / ip_ratio=1.40 / pb_ratio=1.30 / aq=3:0.90 / aq-sensitivity=10.00 / aq-factor=1.00:1.00:1.00 / aq2=0 / aq3=0
Язык : English
Default : Да
Forced : Нет
Цветовой диапазон : Limited
Коэффициенты матрицы : BT.709
Аудио #1
Идентификатор : 2
Формат : AC-3
Формат/Информация : Audio Coding 3
Идентификатор кодека : A_AC3
Продолжительность : 1 ч. 31 м.
Вид битрейта : Постоянный
Битрейт : 384 Кбит/сек
Каналы : 6 каналов
Расположение каналов : Front: L C R, Side: L R, LFE
Частота : 48,0 КГц
Частота кадров : 31,250 кадров/сек (1536 SPF)
Битовая глубина : 16 бит
Метод сжатия : С потерями
Размер потока : 252 Мбайт (7%)
Заголовок : iTunes
Язык : Russian
Default : Да
Forced : Нет
Аудио #2
Идентификатор : 3
Формат : AC-3
Формат/Информация : Audio Coding 3
Идентификатор кодека : A_AC3
Продолжительность : 1 ч. 31 м.
Вид битрейта : Постоянный
Битрейт : 640 Кбит/сек
Каналы : 6 каналов
Расположение каналов : Front: L C R, Side: L R, LFE
Частота : 48,0 КГц
Частота кадров : 31,250 кадров/сек (1536 SPF)
Битовая глубина : 16 бит
Метод сжатия : С потерями
Размер потока : 421 Мбайт (11%)
Заголовок : Original
Язык : English
Default : Нет
Forced : Нет
Текст
Идентификатор : 4
Формат : UTF-8
Идентификатор кодека : S_TEXT/UTF8
Идентификатор кодека/Информация : UTF-8 Plain Text
Заголовок : Full
Язык : English
Default : Нет
Forced : Нет
Меню
00:00:00.000 : en:00:00:00.000
00:04:00.991 : en:00:04:00.991
00:09:32.113 : en:00:09:32.113
00:14:23.988 : en:00:14:23.988
00:20:52.585 : en:00:20:52.585
00:24:16.205 : en:00:24:16.205
00:30:14.187 : en:00:30:14.187
00:34:13.760 : en:00:34:13.760
00:37:46.806 : en:00:37:46.806
00:42:48.357 : en:00:42:48.357
00:47:28.095 : en:00:47:28.095
00:53:23.450 : en:00:53:23.450
00:57:34.242 : en:00:57:34.242
01:01:31.813 : en:01:01:31.813
01:04:15.393 : en:01:04:15.393
01:07:27.210 : en:01:07:27.210
01:10:06.077 : en:01:10:06.077
01:15:36.866 : en:01:15:36.866
01:19:39.775 : en:01:19:39.775
01:26:21.176 : en:01:26:21.176

[Профиль] [ЛС]
Показать сообщения:    

Текущее время: Сегодня 11:10

Часовой пояс: GMT



Вы не можете начинать темы
Вы не можете отвечать на сообщения
Вы не можете редактировать свои сообщения
Вы не можете удалять свои сообщения
Вы не можете голосовать в опросах
Вы не можете прикреплять файлы к сообщениям
Вы не можете скачивать файлы