Моя бывшая подружка / Ami-ami (2018) BDRip 720p | iTunes

 
Автор Сообщение

BOSS ®

Пол:

Стаж: 4 года 1 месяц

Сообщений: 12442

Откуда: ODESSA



Награды: 22 (Подробнее)

Top Releaser 3 (Количество: 1) Mega Releaser 1 (Количество: 1) Mega Seeder 1 (Количество: 1)
Торрент-статистика

Создавать темы 12-Июн-2018 16:37

[Цитировать]

Информация о фильме
Название: Моя бывшая подружка
Оригинальное название: Ami-ami
Год выхода: 2018
Жанр: Kомедия
Режиссер: Виктор Сейнт Макари
В ролях: Уилльям Лебхил, Марго Бансийон, Джонатан Коэн, Камилль Раза, Беатрис де Стаэль, Мари-Кристин Орри, Николас Ваншыцкий, Себастьян Шассейн, Пол-Антуан Ченоз
О фильме: После тяжелого разрыва с девушкой Винсент решает никогда больше не подвергать своё сердце тяжёлым ударам любви. Он съезжается со своим старым проверенным другом Нефели. Так уж случилось, что Нефели — безбашенная, эмоциональная блондинка. Главное правило их дома: никаких серьезных отношений с третьими лицами! Позволены только встречи на одну ночь, не более! Неожиданно Винсент знакомится с безрассудной шатенкой Джули и неизбежно нарушает главное правило. Что на это скажет Нефели?

Выпущено: Франция / Nord-Ouest Productions, NJJ Entertainment, Canal+
Продолжительность: 01:25:33
Озвучивание: Профессиональное (многоголосое) [iTunes]
Файл
Формат: MKV
Качество: BDRip 720p
Видео: MPEG-4 AVC, 5500 kb/s, 1280x688
Аудио: Russian: AC3, 384 kb/s (6 ch) / French: AC3, 640 kb/s (6 ch)
Субтитры: Русские (forced), французские

MI

x264 [info]: frame I:889 Avg QP:14.76 size:108914
x264 [info]: frame P:26397 Avg QP:16.51 size: 49486
x264 [info]: frame B:95786 Avg QP:15.02 size: 22187
x264 [info]: consecutive B-frames: 2.4% 2.6% 7.2% 16.3% 20.1% 37.8% 6.2% 1.9% 1.5% 1.4% 2.7%
====================================================
Общее
Уникальный идентификатор : 219126730240033498614674588179819625544 (0xA4DA45EC6784F6609811CF8069EB7C48)
Полное имя : D:ЗаготовкиAmi.Ami.2018.P.BDRip.720p.mkv
Формат : Matroska
Версия формата : Version 2
Размер файла : 3,90 Гбайт
Продолжительность : 1 ч. 25 м.
Общий поток : 6525 Кбит/сек
Дата кодирования : UTC 2018-06-12 05:27:29
Программа кодирования : mkvmerge v7.8.0 ('River Man') 32bit built on Apr 3 2015 12:11:22
Библиотека кодирования : libebml v1.3.1 + libmatroska v1.4.2
Видео
Идентификатор : 1
Формат : AVC
Формат/Информация : Advanced Video Codec
Профиль формата : High@L4.1
Настройки формата : CABAC / 9 Ref Frames
Параметр CABAC формата : Да
Параметр RefFrames формата : 9 кадров
Идентификатор кодека : V_MPEG4/ISO/AVC
Продолжительность : 1 ч. 25 м.
Битрейт : 5500 Кбит/сек
Ширина : 1280 пикселей
Высота : 688 пикселей
Соотношение сторон : 1,85:1
Режим частоты кадров : Постоянный
Частота кадров : 23,976 (24000/1001) кадра/сек
Цветовое пространство : YUV
Субдискретизация насыщенности : 4:2:0
Битовая глубина : 8 бит
Тип развёртки : Прогрессивная
Бит/(Пиксели*Кадры) : 0.260
Размер потока : 3,21 Гбайт (82%)
Библиотека кодирования : x264 core 152 r2851kMod ba24899
Настройки программы : cabac=1 / ref=9 / deblock=1:-3:-3 / analyse=0x3:0x133 / me=umh / subme=10 / psy=1 / fade_compensate=0.00 / psy_rd=1.00:0.00 / mixed_ref=1 / me_range=32 / chroma_me=0 / trellis=2 / 8x8dct=1 / cqm=0 / deadzone=21,11 / fast_pskip=0 / chroma_qp_offset=-2 / threads=12 / lookahead_threads=3 / sliced_threads=0 / nr=0 / decimate=0 / interlaced=0 / bluray_compat=0 / constrained_intra=0 / bframes=10 / b_pyramid=2 / b_adapt=2 / b_bias=0 / direct=3 / weightb=1 / open_gop=1 / weightp=2 / keyint=240 / keyint_min=23 / scenecut=40 / intra_refresh=0 / rc_lookahead=40 / rc=2pass / mbtree=0 / bitrate=5500 / ratetol=1.0 / qcomp=0.60 / qpmin=0 / qpmax=69 / qpstep=4 / cplxblur=20.0 / qblur=0.5 / vbv_maxrate=50000 / vbv_bufsize=62500 / nal_hrd=none / filler=0 / ip_ratio=1.30 / pb_ratio=1.20 / aq=3:1.70
Язык : French
Default : Да
Forced : Нет
Аудио #1
Идентификатор : 2
Формат : AC-3
Формат/Информация : Audio Coding 3
Идентификатор кодека : A_AC3
Продолжительность : 1 ч. 25 м.
Вид битрейта : Постоянный
Битрейт : 384 Кбит/сек
Каналы : 6 каналов
Расположение каналов : Front: L C R, Side: L R, LFE
Частота : 48,0 КГц
Частота кадров : 31,250 кадров/сек (1536 SPF)
Битовая глубина : 16 бит
Метод сжатия : С потерями
Размер потока : 235 Мбайт (6%)
Заголовок : iTunes
Язык : Russian
Default : Да
Forced : Нет
Аудио #2
Идентификатор : 3
Формат : AC-3
Формат/Информация : Audio Coding 3
Идентификатор кодека : A_AC3
Продолжительность : 1 ч. 25 м.
Вид битрейта : Постоянный
Битрейт : 640 Кбит/сек
Каналы : 6 каналов
Расположение каналов : Front: L C R, Side: L R, LFE
Частота : 48,0 КГц
Частота кадров : 31,250 кадров/сек (1536 SPF)
Битовая глубина : 16 бит
Метод сжатия : С потерями
Размер потока : 392 Мбайт (10%)
Заголовок : Original
Язык : French
Default : Нет
Forced : Нет
Текст #1
Идентификатор : 4
Формат : UTF-8
Идентификатор кодека : S_TEXT/UTF8
Идентификатор кодека/Информация : UTF-8 Plain Text
Заголовок : Forced
Язык : Russian
Default : Да
Forced : Да
Текст #2
Идентификатор : 5
Формат : UTF-8
Идентификатор кодека : S_TEXT/UTF8
Идентификатор кодека/Информация : UTF-8 Plain Text
Заголовок : SDH
Язык : French
Default : Нет
Forced : Нет
Меню
00:00:00.000 : en:Chapter 1
00:06:32.683 : en:Chapter 2
00:14:46.802 : en:Chapter 3
00:21:47.222 : en:Chapter 4
00:31:10.368 : en:Chapter 5
00:40:24.922 : en:Chapter 6
00:46:53.435 : en:Chapter 7
00:53:48.225 : en:Chapter 8
01:00:06.436 : en:Chapter 9
01:09:39.925 : en:Chapter 10
01:15:05.626 : en:Chapter 11
01:22:17.265 : en:Chapter 12

[Профиль] [ЛС]
Кто просматривает тему:

Показать сообщения:    

Текущее время: Сегодня 12:28

Часовой пояс: GMT



Вы не можете начинать темы
Вы не можете отвечать на сообщения
Вы не можете редактировать свои сообщения
Вы не можете удалять свои сообщения
Вы не можете голосовать в опросах
Вы не можете прикреплять файлы к сообщениям
Вы не можете скачивать файлы