Вечеринка / The Party (2017) BDRip 720p | Jaskier

 
Автор Сообщение

BOSS ®

Пол:

Стаж: 3 года 8 месяцев

Сообщений: 10631

Откуда: ODESSA



Награды: 22 (Подробнее)

Top Releaser 5 (Количество: 1) Top Seeder 5 (Количество: 1) Top Releaser 2 (Количество: 1)
Торрент-статистика

Создавать темы 12-Июн-2018 16:35

[Цитировать]

Информация о фильме
Название: Вечеринка
Оригинальное название: The Party
Год выхода: 2017
Жанр: драма, комедия
Режиссер: Салли Поттер
В ролях: Патришия Кларксон, Бруно Ганц, Черри Джонс, Эмили Мортимер, Киллиан Мёрфи, Кристин Скотт Томас, Тимоти Сполл
О фильме:
Дома у Билла и Джэнет собираются старые друзья — посидеть, выпить вина, поделиться новостями, тем более, что в жизни всех участников встречи происходит что-то интересное. Вечер удался бы на славу, но тут Билл сделал такое заявление, что настроение у всех резко испортилось. Теперь старые друзья уже готовы вцепиться друг другу в глотку, как в переносном, так и во вполне прямом смысле.

Страна: Великобритания
Студия: Adventure Pictures, Oxwich Media
Продолжительность: 01:10:42
Перевод: Профессиональный (многоголосый, закадровый) Jaskier
Файл
Формат: MKV
Качество: BDRip 720p | EA
Видео: MPEG-4 AVC, 5905 kb/s, 1280x538
Аудио: Russian: / English: AC3, 640 kb/s (6 ch)
Субтитры: английские (full)
***Примечание: Без рекламы.

MI

Общее
Уникальный идентификатор : 196548171837798884641530324012120395860 (0x93DDCD0C1688397F8AAF46FB1E2FD054)
Полное имя : F:ЗагрузкиThe.Party.2017.BDRip.720p.Jaskier.mkv
Формат : Matroska
Версия формата : Version 2
Размер файла : 3,62 Гбайт
Продолжительность : 1 ч. 10 м.
Общий поток : 7331 Кбит/сек
Дата кодирования : UTC 2018-06-12 01:47:37
Программа кодирования : mkvmerge v7.8.0 ('River Man') 32bit built on Apr 3 2015 12:11:22
Библиотека кодирования : libebml v1.3.1 + libmatroska v1.4.2
Видео
Идентификатор : 1
Формат : AVC
Формат/Информация : Advanced Video Codec
Профиль формата : High@L4.1
Настройки формата : CABAC / 12 Ref Frames
Параметр CABAC формата : Да
Параметр RefFrames формата : 12 кадров
Идентификатор кодека : V_MPEG4/ISO/AVC
Продолжительность : 1 ч. 10 м.
Битрейт : 5905 Кбит/сек
Ширина : 1280 пикселей
Высота : 538 пикселей
Соотношение сторон : 2,40:1
Режим частоты кадров : Постоянный
Частота кадров : 24,000 кадра/сек
Цветовое пространство : YUV
Субдискретизация насыщенности : 4:2:0
Битовая глубина : 8 бит
Тип развёртки : Прогрессивная
Бит/(Пиксели*Кадры) : 0.357
Размер потока : 2,92 Гбайт (81%)
Заголовок : -EA
Библиотека кодирования : x264 core 152 r2851+58 429492e t_mod_Custom [8-bit@all X86_64]
Настройки программы : cabac=1 / ref=12 / deblock=1:-3:-3 / analyse=0x3:0x113 / me=umh / subme=10 / psy=1 / fade_compensate=0.00 / psy_rd=1.02:0.00 / mixed_ref=1 / me_range=32 / chroma_me=0 / trellis=2 / 8x8dct=1 / cqm=0 / deadzone=21,11 / fast_pskip=0 / chroma_qp_offset=-2 / threads=17 / lookahead_threads=2 / sliced_threads=0 / nr=0 / decimate=0 / interlaced=0 / bluray_compat=0 / constrained_intra=0 / fgo=0 / bframes=8 / b_pyramid=2 / b_adapt=2 / b_bias=0 / direct=3 / weightb=1 / open_gop=0 / weightp=2 / keyint=240 / keyint_min=24 / scenecut=40 / intra_refresh=0 / rc_lookahead=60 / rc=crf / mbtree=0 / crf=17.4000 / qcomp=0.75 / qpmin=0:0:0 / qpmax=69:69:69 / qpstep=4 / vbv_maxrate=62500 / vbv_bufsize=78125 / crf_max=0.0 / nal_hrd=none / filler=0 / ip_ratio=1.30 / pb_ratio=1.20 / aq=3:0.85 / aq-sensitivity=10.00 / aq-factor=1.00:1.00:1.00 / aq2=1:0.80 / aq2-sensitivity=15.00 / aq2-factor=1.00:1.00:1.00 / aq3=1:[0.80:0.80]:[0.80:0.80]:[0.80:0.80]:[0.80:0.80] / aq3-sensitivity=10.00 / aq3-factor=[1.00:1.00]:[1.00:1.00]:[1.00:1.00] / aq3-boundary=192:64:24
Язык : English
Default : Да
Forced : Нет
Цветовой диапазон : Limited
Основные цвета : BT.709
Характеристики трансфера : BT.709
Коэффициенты матрицы : BT.709
Аудио #1
Идентификатор : 2
Формат : AC-3
Формат/Информация : Audio Coding 3
Идентификатор кодека : A_AC3
Продолжительность : 1 ч. 10 м.
Вид битрейта : Постоянный
Битрейт : 640 Кбит/сек
Каналы : 6 каналов
Расположение каналов : Front: L C R, Side: L R, LFE
Частота : 48,0 КГц
Частота кадров : 31,250 кадров/сек (1536 SPF)
Битовая глубина : 16 бит
Метод сжатия : С потерями
Размер потока : 324 Мбайт (9%)
Заголовок : Jaskier
Язык : Russian
Default : Да
Forced : Нет
Аудио #2
Идентификатор : 3
Формат : AC-3
Формат/Информация : Audio Coding 3
Идентификатор кодека : A_AC3
Продолжительность : 1 ч. 10 м.
Вид битрейта : Постоянный
Битрейт : 640 Кбит/сек
Каналы : 6 каналов
Расположение каналов : Front: L C R, Side: L R, LFE
Частота : 48,0 КГц
Частота кадров : 31,250 кадров/сек (1536 SPF)
Битовая глубина : 16 бит
Метод сжатия : С потерями
Размер потока : 324 Мбайт (9%)
Заголовок : Original
Язык : English
Default : Нет
Forced : Нет
Текст
Идентификатор : 4
Формат : UTF-8
Идентификатор кодека : S_TEXT/UTF8
Идентификатор кодека/Информация : UTF-8 Plain Text
Заголовок : Full
Язык : English
Default : Нет
Forced : Нет
Меню
00:00:00.000 : en:00:00:00.000
00:10:52.417 : en:00:10:52.417
00:19:38.833 : en:00:19:38.833
00:30:31.208 : en:00:30:31.208
00:38:46.625 : en:00:38:46.625
00:48:28.208 : en:00:48:28.208
00:56:37.292 : en:00:56:37.292
01:05:53.625 : en:01:05:53.625

Скриншоты

Релиз от: JASKiER
[Профиль] [ЛС]
Показать сообщения:    

Текущее время: Сегодня 12:02

Часовой пояс: GMT



Вы не можете начинать темы
Вы не можете отвечать на сообщения
Вы не можете редактировать свои сообщения
Вы не можете удалять свои сообщения
Вы не можете голосовать в опросах
Вы не можете прикреплять файлы к сообщениям
Вы не можете скачивать файлы