Ферма «Мадбаунд» / Mudbound (2017) WEBRip 720p | Jaskier

 
Автор Сообщение

BOSS ®

Пол:

Стаж: 3 года 11 месяцев

Сообщений: 11851

Откуда: ODESSA



Награды: 22 (Подробнее)

Top Seeder 2 (Количество: 1) Mega Releaser 2 (Количество: 1) Top Keeper 3 (Количество: 1)
Торрент-статистика

Создавать темы 12-Июн-2018 16:31

[Цитировать]

Информация о фильме
Название: Ферма «Мадбаунд»
Оригинальное название: Mudbound
Год выхода: 2017
Жанр: Драма
Режиссер: Ди Риис
В ролях: Гаррет Хедлунд, Кэри Маллиган, Джонатан Бэнкс, Джейсон Кларк, Джейсон Митчелл, Роб Морган, Мэри Джей Блайдж, Керри Кехилл, Келвин Харрисон и другие
О фильме:
1946 год. Генри МакАллан перевозит свою семью из Мемфиса на принадлежащую отцу удалённую хлопковую ферму в дельте Миссисипи. Пока Генри занимается физическим трудом на земле, которую любит, его жена Лора, привыкшая к городской жизни, с большими трудностями обживается на новом месте под пристальным взглядом сурового свёкра. Скоро к ним присоединяется вернувшийся с войны младший брат Генри — Джейми.

Страна: США, ArtImage Entertainment
Продолжительность: 02:15:02
Перевод: Профессиональный (многоголосый, закадровый) Jaskier
Файл
Формат: MKV
Качество: WEBRip 720p
Видео: MPEG-4 AVC, 1490 kb/s, 1280x720
Аудио: Russian: / English: AC3, 384 kb/s (6 ch)
Субтитры: английские (full)
***Примечание: Без рекламы.

MI

Общее
Уникальный идентификатор : 223587180042332098330955471675049325071 (0xA8355313E774596CACFBF37FF46B320F)
Полное имя : D:ЯскъерMudbound.2017.720p.WEBRip.NF.Jaskier.mkv
Формат : Matroska
Версия формата : Version 2
Размер файла : 2,10 Гбайт
Продолжительность : 2 ч. 15 м.
Режим общего битрейта : Переменный
Общий поток : 2226 Кбит/сек
Дата кодирования : UTC 2018-06-11 23:34:55
Программа кодирования : mkvmerge v7.8.0 ('River Man') 32bit built on Apr 3 2015 12:11:22
Библиотека кодирования : libebml v1.3.1 + libmatroska v1.4.2
Видео
Идентификатор : 1
Формат : AVC
Формат/Информация : Advanced Video Codec
Профиль формата : Main@L3.1
Настройки формата : CABAC / 3 Ref Frames
Параметр CABAC формата : Да
Параметр RefFrames формата : 3 кадра
Идентификатор кодека : V_MPEG4/ISO/AVC
Продолжительность : 2 ч. 15 м.
Вид битрейта : Переменный
Битрейт : 1470 Кбит/сек
Максимальный битрейт : 2205 Кбит/сек
Ширина : 1280 пикселей
Высота : 720 пикселей
Соотношение сторон : 16:9
Режим частоты кадров : Постоянный
Частота кадров : 23,976 (24000/1001) кадра/сек
Цветовое пространство : YUV
Субдискретизация насыщенности : 4:2:0
Битовая глубина : 8 бит
Тип развёртки : Прогрессивная
Бит/(Пиксели*Кадры) : 0.067
Размер потока : 1,33 Гбайт (64%)
Библиотека кодирования : x264 core 148
Настройки программы : cabac=1 / ref=3 / deblock=1:0:0 / analyse=0x1:0x111 / me=umh / subme=10 / psy=1 / psy_rd=1.00:0.00 / mixed_ref=1 / me_range=24 / chroma_me=1 / trellis=2 / 8x8dct=0 / cqm=0 / deadzone=21,11 / fast_pskip=1 / chroma_qp_offset=-2 / threads=8 / lookahead_threads=1 / sliced_threads=0 / nr=0 / decimate=1 / interlaced=0 / bluray_compat=0 / stitchable=1 / constrained_intra=0 / bframes=2 / b_pyramid=0 / b_adapt=2 / b_bias=0 / direct=3 / weightb=1 / open_gop=0 / weightp=2 / keyint=48 / keyint_min=25 / scenecut=0 / intra_refresh=0 / rc_lookahead=48 / rc=2pass / mbtree=1 / bitrate=1470 / ratetol=1.0 / qcomp=0.50 / qpmin=6 / qpmax=51 / qpstep=4 / cplxblur=20.0 / qblur=0.5 / vbv_maxrate=2205 / vbv_bufsize=2940 / nal_hrd=vbr / filler=0 / ip_ratio=1.40 / aq=1:1.00
Язык : English
Default : Да
Forced : Нет
Аудио #1
Идентификатор : 2
Формат : AC-3
Формат/Информация : Audio Coding 3
Идентификатор кодека : A_AC3
Продолжительность : 2 ч. 15 м.
Вид битрейта : Постоянный
Битрейт : 384 Кбит/сек
Каналы : 6 каналов
Расположение каналов : Front: L C R, Side: L R, LFE
Частота : 48,0 КГц
Частота кадров : 31,250 кадров/сек (1536 SPF)
Битовая глубина : 16 бит
Метод сжатия : С потерями
Размер потока : 371 Мбайт (17%)
Заголовок : Jaskier
Язык : Russian
Default : Да
Forced : Нет
Аудио #2
Идентификатор : 3
Формат : AC-3
Формат/Информация : Audio Coding 3
Идентификатор кодека : A_AC3
Продолжительность : 2 ч. 15 м.
Вид битрейта : Постоянный
Битрейт : 384 Кбит/сек
Каналы : 6 каналов
Расположение каналов : Front: L C R, Side: L R, LFE
Частота : 48,0 КГц
Частота кадров : 31,250 кадров/сек (1536 SPF)
Битовая глубина : 16 бит
Метод сжатия : С потерями
Размер потока : 371 Мбайт (17%)
Заголовок : Original
Язык : English
Default : Нет
Forced : Нет
Текст
Идентификатор : 4
Формат : UTF-8
Идентификатор кодека : S_TEXT/UTF8
Идентификатор кодека/Информация : UTF-8 Plain Text
Заголовок : Full
Язык : English
Default : Нет
Forced : Нет

Скриншоты

Релиз от: JASKiER
[Профиль] [ЛС]
Показать сообщения:    

Текущее время: Сегодня 17:48

Часовой пояс: GMT



Вы не можете начинать темы
Вы не можете отвечать на сообщения
Вы не можете редактировать свои сообщения
Вы не можете удалять свои сообщения
Вы не можете голосовать в опросах
Вы не можете прикреплять файлы к сообщениям
Вы не можете скачивать файлы