Мастер / Maseuteo / Ma-seu-teo (2016) BDRip 1080p | L2

 
Автор Сообщение

BOSS ®

Пол:

Стаж: 4 года 1 месяц

Сообщений: 12442

Откуда: ODESSA



Награды: 22 (Подробнее)

Mega Releaser 1 (Количество: 1) Mega Releaser 4 (Количество: 1) Top Seeder 3 (Количество: 1)
Торрент-статистика

Создавать темы 10-Июн-2018 16:32

[Цитировать]

Информация о фильме
Название: Мастер
Оригинальное название: Ma-seu-teo
Год выхода: 2016
Жанр: Боевик, драма, криминал
Режиссер: И Сок Чо
В ролях: Бён Хон Ли, Дон Вон Кан, У Бин Ким, Даль Су О, Чжи Вон Ом, Чжин Кён, Вон Чжун Чон, Хэ Су Пак, До Хван У, Чон Чжа Пак, Ён Су Ю, Хён Чхоль Чо, Сун Вон Ли, Чжон Нам Пэ, Су Кё Чон, Сок Тэ Чжу, Бён Ок Ким
О фильме:
Прокурор Ким исследует деятельность компании “Уан Нетворк”, вовлечённой в крупные махинации. Чтобы подобраться к президенту сети, Чину, он “надавливает” на компьютерного директора Пака. Тот является молодым “Мозгом” компании, непосредственно отвечает за работу со счетами инвесторов, но в жизни изображает из себя простака и дурачка. Назревает самая крупная афера в истории Кореи. Ким преследует президента Чина, вовлекает в дело Пака, но и у молодого директора свои интересы в этой игре. Так и начинается долгая погоня умов друг за другом…

Страна: Корея Южная
Студия: CJ Entertaniment
Продолжительность: 02:22:54
Перевод: Любительский двухголосый

Файл
Кодек: x.264
Качество: BDRip 1080p
Видео: MPEG-4 AVC, 1920x804, 14.7 Mбит/с, 24.000 кадр/с
Звук:
Аудио #1: Русский ( АС3, 6ch, 448Кбит/с, 48.0 KHz) Любительский (двухголосый, закадровый) "GREEN TEA"
Аудио #2: Русский ( АС3, 6ch, 384Кбит/с, 48.0 KHz) Любительский (двухголосый, закадровый) Студия "Колобок"
Аудио #3: Корейский ( АС3, 6ch, 448Кбит/с, 48.0 KHz)
Субтитры: китайские
Трейлер

MediaInfo

Источник: Master.2016.1080p.BluRay.x264-WiKi
General
Unique ID : 188707068409600113042402470045548486144 (0x8DF7A8CCEA4B1E94ABDD27077CAF1E00)
Complete name : Master.2016.BDRip.1080p.mkv
Format : Matroska
Format version : Version 4 / Version 2
File size : 15.9 GiB
Duration : 2 h 22 min
Overall bit rate : 15.9 Mb/s
Encoded date : UTC 2018-05-25 21:29:37
Writing application : mkvmerge v7.1.0 ('Good Love') 64bit built on Jul 27 2014 13:06:55
Writing library : libebml v1.3.0 + libmatroska v1.4.1
Video
ID : 1
Format : AVC
Format/Info : Advanced Video Codec
Format profile : High@L4.1
Format settings : CABAC / 5 Ref Frames
Format settings, CABAC : Yes
Format settings, ReFrames : 5 frames
Codec ID : V_MPEG4/ISO/AVC
Duration : 2 h 22 min
Bit rate : 14.7 Mb/s
Width : 1 920 pixels
Height : 804 pixels
Display aspect ratio : 2.40:1
Frame rate mode : Constant
Frame rate : 24.000 FPS
Color space : YUV
Chroma subsampling : 4:2:0
Bit depth : 8 bits
Scan type : Progressive
Bits/(Pixel*Frame) : 0.396
Stream size : 14.6 GiB (92%)
Writing library : x264 core 148 r2762+56 6284cf3 t_mod_Custom [8-bit@all X86_64]
Encoding settings : cabac=1 / ref=5 / deblock=1:-3:-3 / analyse=0x3:0x133 / me=umh / subme=11 / psy=1 / fade_compensate=0.00 / psy_rd=1.05:0.00 / mixed_ref=1 / me_range=32 / chroma_me=1 / trellis=2 / 8x8dct=1 / cqm=0 / deadzone=21,11 / fast_pskip=0 / chroma_qp_offset=-2 / threads=6 / lookahead_threads=1 / sliced_threads=0 / nr=0 / decimate=1 / interlaced=0 / bluray_compat=0 / constrained_intra=0 / fgo=0 / bframes=8 / b_pyramid=2 / b_adapt=2 / b_bias=0 / direct=3 / weightb=1 / open_gop=0 / weightp=2 / keyint=250 / keyint_min=24 / scenecut=40 / intra_refresh=0 / rc=crf / mbtree=0 / crf=16.5000 / qcomp=0.70 / qpmin=0:0:0 / qpmax=69:69:69 / qpstep=4 / ip_ratio=1.40 / pb_ratio=1.30 / aq=1:0.85 / aq-sensitivity=10.00 / aq-factor=1.00:1.00:1.00 / aq2=0 / aq3=0
Language : Korean
Default : Yes
Forced : No
Audio #1
ID : 2
Format : AC-3
Format/Info : Audio Coding 3
Codec ID : A_AC3
Duration : 2 h 22 min
Bit rate mode : Constant
Bit rate : 448 kb/s
Channel(s) : 6 channels
Channel positions : Front: L C R, Side: L R, LFE
Sampling rate : 48.0 kHz
Frame rate : 31.250 FPS (1536 SPF)
Bit depth : 16 bits
Compression mode : Lossy
Stream size : 458 MiB (3%)
Title : Любительский (двухголосый, закадровый) ["GREEN TEA"]
Language : Russian
Service kind : Complete Main
Default : Yes
Forced : No
Audio #2
ID : 3
Format : AC-3
Format/Info : Audio Coding 3
Codec ID : A_AC3
Duration : 2 h 22 min
Bit rate mode : Constant
Bit rate : 384 kb/s
Channel(s) : 6 channels
Channel positions : Front: L C R, Side: L R, LFE
Sampling rate : 48.0 kHz
Frame rate : 31.250 FPS (1536 SPF)
Bit depth : 16 bits
Compression mode : Lossy
Stream size : 392 MiB (2%)
Title : Любительский (двухголосый, закадровый) [КОЛОБОК]
Language : Russian
Service kind : Complete Main
Default : No
Forced : No
Audio #3
ID : 4
Format : AC-3
Format/Info : Audio Coding 3
Codec ID : A_AC3
Duration : 2 h 22 min
Bit rate mode : Constant
Bit rate : 448 kb/s
Channel(s) : 6 channels
Channel positions : Front: L C R, Side: L R, LFE
Sampling rate : 48.0 kHz
Frame rate : 31.250 FPS (1536 SPF)
Bit depth : 16 bits
Compression mode : Lossy
Stream size : 458 MiB (3%)
Language : Korean
Service kind : Complete Main
Default : No
Forced : No
Text #1
ID : 5
Format : UTF-8
Codec ID : S_TEXT/UTF8
Codec ID/Info : UTF-8 Plain Text
Duration : 2 h 22 min
Bit rate : 48 b/s
Count of elements : 1774
Stream size : 50.9 KiB (0%)
Title : chs_TW
Language : Chinese
Default : No
Forced : No
Text #2
ID : 6
Format : UTF-8
Codec ID : S_TEXT/UTF8
Codec ID/Info : UTF-8 Plain Text
Duration : 2 h 22 min
Bit rate : 48 b/s
Count of elements : 1774
Stream size : 50.9 KiB (0%)
Title : cht_TW
Language : Chinese
Default : No
Forced : No
Text #3
ID : 7
Format : UTF-8
Codec ID : S_TEXT/UTF8
Codec ID/Info : UTF-8 Plain Text
Duration : 2 h 22 min
Bit rate : 36 b/s
Count of elements : 1769
Stream size : 38.0 KiB (0%)
Title : chs_HK
Language : Chinese
Default : No
Forced : No
Text #4
ID : 8
Format : UTF-8
Codec ID : S_TEXT/UTF8
Codec ID/Info : UTF-8 Plain Text
Duration : 2 h 22 min
Bit rate : 36 b/s
Count of elements : 1769
Stream size : 37.9 KiB (0%)
Title : cht_HK
Language : Chinese
Default : No
Forced : No
Menu
00:00:00.000 : en:00:00:00.000
00:12:40.292 : en:00:12:40.292
00:23:33.750 : en:00:23:33.750
00:35:37.708 : en:00:35:37.708
00:46:53.125 : en:00:46:53.125
00:58:54.042 : en:00:58:54.042
01:12:17.250 : en:01:12:17.250
01:23:30.958 : en:01:23:30.958
01:37:22.042 : en:01:37:22.042
01:47:34.167 : en:01:47:34.167
01:58:42.375 : en:01:58:42.375
02:13:02.000 : en:02:13:02.000
[Профиль] [ЛС]
Показать сообщения:    

Текущее время: Сегодня 11:26

Часовой пояс: GMT



Вы не можете начинать темы
Вы не можете отвечать на сообщения
Вы не можете редактировать свои сообщения
Вы не можете удалять свои сообщения
Вы не можете голосовать в опросах
Вы не можете прикреплять файлы к сообщениям
Вы не можете скачивать файлы