После заката / After The Sunset (2004) BDRip 1080p | D, P, P2, A

 
Author Message

Swager ®

Gender:

Longevity: 3 years 7 months

Posts: 2121



: 4 ()

За внесенный вклад в развитие сайта (1) Mega Seeder 1 (1) Top Releaser 2 (1)
Торрент-статистика

Post 10-Jun-2018 16:09

[Quote]

Информация о фильме
Название: После заката
Оригинальное название: After the Sunset
Год выпуска: 2004
Жанр: Боевик, драма, комедия, криминал
Выпущено: США, Contrafilm, Firm Films, New Line Cinema, Rat Entertainment, OOOii, Black Box Digital, Custom Film Effects, Edge Innovations
Режиссер: Бретт Рэтнер
В ролях: Пирс Броснан, Сальма Хайек, Вуди Харрельсон, Дон Чидл, Наоми Харрис, Джефф Гарлин, Том МакГауэн, Лиза Торнхилл, Крис Пенн, Марк Мозес, Обба Бабатунде, Микелти Уильямсон, Роберт Кертис, Шакил О'Нил, Эндрю Фисцелла, Джанни Руссо, Сюзанна Гибб, Рис Риос, Натали Джонс, Кристофер Абрам, Шакара Ледэрд, Майкл В. Браун, Одри Куок, Анджела Гэйр, Дэвид Рейверс, Камал Мараяти, Брайан Скотт Фицджералд, Джиллиан Вигман, Кристофер Холт, Джэми Амарал, Ноэми Ленор, Николь Холт, Эйприл Мо...
О фильме: Вор экстра-класса Макс Бернетт, несмотря на все усилия спецагента ФБР Стэна Ллойда, вот уже семь лет сидящего у него на хвосте, ухитряется таки выкрасть прямо из-под носа у Стэна гигантский алмаз. Теперь Макс намерен исполнить желание своей девушки и удалиться на покой, на тропический остров с роскошным бунгало на берегу океана. Но Стэн следует за ним, на острове в скором времени состоится выставка драгоценных камней, и Стэн на все сто уверен, что Макс не упустит такую возможность вернуться в дело.

Продолжительность: 01:37:28
Перевод: Дублированный, профессиональный многоголосый, профессиональный двухголосый, авторский
Субтитры: Русские, английские
Файл
Качество: BDRip (1080p)
Видео: MPEG-4 AVC, 14 Мбит/с, 1920x800
Аудио #1: Русский (AC3, 6 ch, 448 Кбит/с) Дублированный
Аудио #2: Русский (AC3, 6 ch, 384 Кбит/с) Профессиональный многоголосый [Universal]
Аудио #3: Русский (AC3, 6 ch, 448 Кбит/с) Профессиональный многоголосый
Аудио #4: Русский (АС3, 6 ch, 448 Кбит/с) Профессиональный двухголосый [Tycoon Studio]
Аудио #5: Русский (АС3, 6 ch, 448 Кбит/с) Авторский одноголосый [Андрей Гаврилов]
Аудио #6: Русский (AC3, 6 ch, 448 Кбит/с) Авторский одноголосый [Владимир Королев]
Аудио #7: Английский (AC3, 6 ch, 448 Кбит/с)

МедиаИнфо

Формат : Matroska
Версия формата : Version 2
Размер файла : 11,6 Гбайт
Продолжительность : 1 ч. 37 м.
Общий поток : 17,1 Мбит/сек
Название фильма : ~V ad~
Дата кодирования : UTC 2016-08-25 12:19:59
Программа кодирования : mkvmerge v6.5.0 ('Isn't she lovely') built on Oct 20 2013 12:50:05
Библиотека кодирования : libebml v1.3.0 + libmatroska v1.4.1
Обложка : Yes
Attachments : cover.jpg
Видео
Идентификатор : 1
Формат : AVC
Формат/Информация : Advanced Video Codec
Профиль формата : High@L4.1
Параметр CABAC формата : Да
Параметр ReFrames формата : 5 кадров
Идентификатор кодека : V_MPEG4/ISO/AVC
Продолжительность : 1 ч. 37 м.
Битрейт : 14,0 Мбит/сек
Ширина : 1920 пикселей
Высота : 800 пикселей
Соотношение сторон : 2,40:1
Режим частоты кадров : Постоянный
Частота кадров : 23,976 (24000/1001) кадра/сек
Цветовое пространство : YUV
Субдискретизация насыщенности : 4:2:0
Битовая глубина : 8 бит
Тип развёртки : Прогрессивная
Бит/(Пиксели*Кадры) : 0.381
Размер потока : 9,32 Гбайт (80%)
Заголовок : ~V~
Библиотека кодирования : x264 core 148 r2705 3f5ed56
Настройки программы : cabac=1 / ref=5 / deblock=1:-3:-3 / analyse=0x3:0x133 / me=umh / subme=11 / psy=1 / psy_rd=1.10:0.10 / mixed_ref=1 / me_range=32 / chroma_me=1 / trellis=2 / 8x8dct=1 / cqm=0 / deadzone=21,11 / fast_pskip=0 / chroma_qp_offset=-3 / threads=12 / lookahead_threads=1 / sliced_threads=0 / nr=0 / decimate=0 / interlaced=0 / bluray_compat=0 / constrained_intra=0 / bframes=9 / b_pyramid=2 / b_adapt=2 / b_bias=0 / direct=3 / weightb=1 / open_gop=0 / weightp=2 / keyint=240 / keyint_min=23 / scenecut=40 / intra_refresh=0 / rc=2pass / mbtree=0 / bitrate=14040 / ratetol=1.0 / qcomp=0.60 / qpmin=0 / qpmax=69 / qpstep=4 / cplxblur=20.0 / qblur=0.5 / ip_ratio=1.30 / pb_ratio=1.24 / aq=3:0.80
Язык : English
Default : Да
Forced : Нет
Аудио #1
Идентификатор : 2
Формат : AC-3
Формат/Информация : Audio Coding 3
Расширение режима : CM (complete main)
Параметр Endianness формата : Big
Идентификатор кодека : A_AC3
Продолжительность : 1 ч. 37 м.
Вид битрейта : Постоянный
Битрейт : 448 Кбит/сек
Каналы : 6 каналов
Расположение каналов : Front: L C R, Side: L R, LFE
Частота : 48,0 КГц
Частота кадров : 31,250 кадров/сек (1536 spf)
Метод сжатия : С потерями
Размер потока : 312 Мбайт (3%)
Заголовок : Dub
Язык : Russian
Default : Да
Forced : Да
Аудио #2
Идентификатор : 3
Формат : AC-3
Формат/Информация : Audio Coding 3
Расширение режима : CM (complete main)
Параметр Endianness формата : Big
Идентификатор кодека : A_AC3
Продолжительность : 1 ч. 37 м.
Вид битрейта : Постоянный
Битрейт : 384 Кбит/сек
Каналы : 6 каналов
Расположение каналов : Front: L C R, Side: L R, LFE
Частота : 48,0 КГц
Частота кадров : 31,250 кадров/сек (1536 spf)
Метод сжатия : С потерями
Размер потока : 268 Мбайт (2%)
Заголовок : MVO[Universal]
Язык : Russian
Default : Нет
Forced : Нет
Аудио #3
Идентификатор : 4
Формат : AC-3
Формат/Информация : Audio Coding 3
Расширение режима : CM (complete main)
Параметр Endianness формата : Big
Идентификатор кодека : A_AC3
Продолжительность : 1 ч. 37 м.
Вид битрейта : Постоянный
Битрейт : 448 Кбит/сек
Каналы : 6 каналов
Расположение каналов : Front: L C R, Side: L R, LFE
Частота : 48,0 КГц
Частота кадров : 31,250 кадров/сек (1536 spf)
Метод сжатия : С потерями
Размер потока : 312 Мбайт (3%)
Заголовок : MVO[---]
Язык : Russian
Default : Нет
Forced : Нет
Аудио #4
Идентификатор : 5
Формат : AC-3
Формат/Информация : Audio Coding 3
Расширение режима : CM (complete main)
Параметр Endianness формата : Big
Идентификатор кодека : A_AC3
Продолжительность : 1 ч. 37 м.
Вид битрейта : Постоянный
Битрейт : 448 Кбит/сек
Каналы : 6 каналов
Расположение каналов : Front: L C R, Side: L R, LFE
Частота : 48,0 КГц
Частота кадров : 31,250 кадров/сек (1536 spf)
Метод сжатия : С потерями
Размер потока : 312 Мбайт (3%)
Заголовок : DVO[Tycoon Studio]
Язык : Russian
Default : Нет
Forced : Нет
Аудио #5
Идентификатор : 6
Формат : AC-3
Формат/Информация : Audio Coding 3
Расширение режима : CM (complete main)
Параметр Endianness формата : Big
Идентификатор кодека : A_AC3
Продолжительность : 1 ч. 37 м.
Вид битрейта : Постоянный
Битрейт : 448 Кбит/сек
Каналы : 6 каналов
Расположение каналов : Front: L C R, Side: L R, LFE
Частота : 48,0 КГц
Частота кадров : 31,250 кадров/сек (1536 spf)
Метод сжатия : С потерями
Размер потока : 312 Мбайт (3%)
Заголовок : AVO[А.Гаврилов]
Язык : Russian
Default : Нет
Forced : Нет
Аудио #6
Идентификатор : 7
Формат : AC-3
Формат/Информация : Audio Coding 3
Расширение режима : CM (complete main)
Параметр Endianness формата : Big
Идентификатор кодека : A_AC3
Продолжительность : 1 ч. 37 м.
Вид битрейта : Постоянный
Битрейт : 448 Кбит/сек
Каналы : 6 каналов
Расположение каналов : Front: L C R, Side: L R, LFE
Частота : 48,0 КГц
Частота кадров : 31,250 кадров/сек (1536 spf)
Метод сжатия : С потерями
Размер потока : 312 Мбайт (3%)
Заголовок : AVO[В.Королёв]
Язык : Russian
Default : Нет
Forced : Нет
Аудио #7
Идентификатор : 8
Формат : AC-3
Формат/Информация : Audio Coding 3
Расширение режима : CM (complete main)
Параметр Endianness формата : Big
Идентификатор кодека : A_AC3
Продолжительность : 1 ч. 37 м.
Вид битрейта : Постоянный
Битрейт : 448 Кбит/сек
Каналы : 6 каналов
Расположение каналов : Front: L C R, Side: L R, LFE
Частота : 48,0 КГц
Частота кадров : 31,250 кадров/сек (1536 spf)
Метод сжатия : С потерями
Размер потока : 312 Мбайт (3%)
Язык : English
Default : Нет
Forced : Нет
Текст #1
Идентификатор : 9
Формат : UTF-8
Идентификатор кодека : S_TEXT/UTF8
Идентификатор кодека/Информация : UTF-8 Plain Text
Язык : Russian
Default : Нет
Forced : Нет
Текст #2
Идентификатор : 10
Формат : UTF-8
Идентификатор кодека : S_TEXT/UTF8
Идентификатор кодека/Информация : UTF-8 Plain Text
Язык : English
Default : Нет
Forced : Нет
Меню
00:00:00.000 : en:Opening Credits Part 1 / the Street Cleaner
00:09:49.380 : en:Max's Plan
00:20:03.911 : en:Opening Credits Part 2 / Paradise
00:30:02.258 : en:Intruder
00:39:45.216 : en:Moment of Truth
00:50:36.575 : en:Sophie's Introduction
00:59:42.120 : en:The Two Couples
01:09:48.559 : en:The Third Napoleon Diamond
01:19:45.781 : en:The Proposition
01:32:06.145 : en:Credits
01:37:26.423 : en:End

х264

x264 [info]: frame I:1002 Avg QP:17.31 size:210901
x264 [info]: frame P:28104 Avg QP:19.12 size:117835
x264 [info]: frame B:111074 Avg QP:21.13 size: 60604

Скриншоты


Сэмпл
[Profile] [PM]
Display posts from previous:    

The time now is: Today 10:54

All times are GMT



You cannot post new topics in this forum
You cannot reply to topics in this forum
You cannot edit your posts in this forum
You cannot delete your posts in this forum
You cannot vote in polls in this forum
You cannot attach files in this forum
You cannot download files in this forum