Воин / Warrior (2011) BDRip 1080p | P, A

 
Автор Сообщение

BOSS ®

Пол:

Стаж: 4 года 1 месяц

Сообщений: 12442

Откуда: ODESSA



Награды: 22 (Подробнее)

Mega Seeder 1 (Количество: 1) Mega Seeder 3 (Количество: 1) Mega Releaser 4 (Количество: 1)
Торрент-статистика

Создавать темы 10-Июн-2018 07:10

[Цитировать]

Информация о фильме
Название: Воин
Оригинальное название: Warrior
Год выхода: 2011
Жанр: Драма, спорт
Режиссер: Гэвин О’Коннор
В ролях: Джоэл Эдгертон, Том Харди, Ник Нолти, Дженнифер Моррисон, Фрэнк Грилло, Кевин Данн, Максимилиано Эрнандез, Брайан Коллен, Гэвин О’Коннор, Сэм Шеридан
О фильме:
Томми Конлон — молодой боец, вернувшийся домой после долгого отсутствия, чтобы приготовиться к участию в большом турнире. Отец-пьяница, в прошлом талантливый боксер, берется тренировать сына. Томми с успехом проходит все этапы соревнования, но кто бы мог подумать, что в финале судьба столкнет его на ринге… с собственным братом.

Страна: США
Студия: Lionsgate, Filmtribe
Продолжительность: 02:19:54
Перевод: Профессиональный (многоголосый, закадровый) |R5| + Авторский + Оригинал-

Доп.инф:

Автор релиза - ylnian
Исходник для рипа - WARRIOR_BD_BLUEBIRD
Чаптеры как на BluRay
Выкуп голоса Юрия Живова - ylnian
За наложение чистого голоса Живова спасибо rammzez
Дата релиза - 14.11.2015
-Файл
Кодек: x264
Качество: BDRip 1080p
Видео: MPEG-4 AVC, 9000 Кбит/с, 1920x800, 23.976 кадр/с
Звук:
1. AC3, 6 ch, 640 Кбит/с - Многоголосый (Лицензия R5)
2. AC3, 2 ch, 192 Кбит/с - Многоголосый (Студия Инис)
3. AC3, 6 ch, 640 Кбит/с - Авторский (Юрий Сербин)
4. AC3, 6 ch, 640 Кбит/с - Авторский (Юрий Живов)
5. AC3, 6 ch, 640 Кбит/с - оригинал
6. AC3, 2 ch, 224 Кбит/с - комментарии актёра Джоэла Эдгертона, режиссёра Гэвина О’Коннора, сценариста Энтони Тамбакиса, специалиста по монтажу Джона Гилроя,
Субтитры: Русские субтитры 5 видов: Лицензия R5, по переводу Ю. Сербина, Notabenoid, Dunadan, Serg1004
Субтитры: Английские субтитры 2-х видов: полные и SDH (для людей со слабым слухом)-Русский MVO DTS-HD МА получен микшированием выделенных фраз с озвучки с каналом оригинальной ХД дорожки.

Скрытый текст

За перевод Ю. Сербина спасибо: sergey_n, murtuz90, mihaildns, Scaramouche, Кириллка, tft, radical, timyrovec, АСАВ, elena 311, Alex15_90, Gercules, Slimka, safreks, Loki1982, Dervish, benjjjamin
-

Скриншоты:



-

MediaInfo

General
Unique ID : 237098523412347807175829880508564570869 (0xB25F83BCE3DC3B8CA3AB54D089BF02F5)
Complete name : Warrior. 2011. BDRip (1080p) - ylnian.mkv
Format : Matroska
Format version : Version 4 / Version 2
File size : 11.7 GiB
Duration : 2h 19mn
Overall bit rate : 12.0 Mbps
Movie name : Warrior. 2011. BDRip (1080p) - ylnian
Encoded date : UTC 2015-11-12 10:16:10
Writing application : mkvmerge v8.3.0 ('Over the Horizon') 64bit
Writing library : libebml v1.3.1 + libmatroska v1.4.2
Video
ID : 1
Format : AVC
Format/Info : Advanced Video Codec
Format profile : High@L4.1
Format settings, CABAC : Yes
Format settings, ReFrames : 4 frames
Codec ID : V_MPEG4/ISO/AVC
Duration : 2h 19mn
Bit rate : 9 000 Kbps
Width : 1 920 pixels
Height : 800 pixels
Display aspect ratio : 2.40:1
Frame rate mode : Constant
Frame rate : 23.976 fps
Color space : YUV
Chroma subsampling : 4:2:0
Bit depth : 8 bits
Scan type : Progressive
Bits/(Pixel*Frame) : 0.244
Stream size : 8.56 GiB (73%)
Title : Warrior. 2011. BDRip (1080p) - ylnian
Writing library : x264 core 129 r2230 1cffe9f
Encoding settings : cabac=1 / ref=4 / deblock=1:-3:-3 / analyse=0x3:0x133 / me=umh / subme=11 / psy=1 / psy_rd=1.00:0.15 / mixed_ref=1 / me_range=32 / chroma_me=1 / trellis=2 / 8x8dct=1 / cqm=0 / deadzone=21,11 / fast_pskip=0 / chroma_qp_offset=-5 / threads=12 / lookahead_threads=2 / sliced_threads=0 / nr=0 / decimate=1 / interlaced=0 / bluray_compat=0 / constrained_intra=0 / bframes=11 / b_pyramid=2 / b_adapt=2 / b_bias=0 / direct=2 / weightb=1 / open_gop=0 / weightp=2 / keyint=240 / keyint_min=1 / scenecut=40 / intra_refresh=0 / rc_lookahead=60 / rc=2pass / mbtree=1 / bitrate=9000 / ratetol=1.0 / qcomp=0.60 / qpmin=0 / qpmax=69 / qpstep=4 / cplxblur=20.0 / qblur=0.5 / vbv_maxrate=16000 / vbv_bufsize=60000 / nal_hrd=none / ip_ratio=1.40 / aq=2:1.20
Language : English
Default : Yes
Forced : Yes
Audio #1
ID : 2
Format : AC-3
Format/Info : Audio Coding 3
Mode extension : CM (complete main)
Format settings, Endianness : Big
Codec ID : A_AC3
Duration : 2h 19mn
Bit rate mode : Constant
Bit rate : 640 Kbps
Channel(s) : 6 channels
Channel positions : Front: L C R, Side: L R, LFE
Sampling rate : 48.0 KHz
Compression mode : Lossy
Stream size : 640 MiB (5%)
Title : MVO (Лицензия R5) (AC3 5.1 640 kbps)
Language : Russian
Default : Yes
Forced : Yes
Audio #2
ID : 3
Format : AC-3
Format/Info : Audio Coding 3
Mode extension : CM (complete main)
Format settings, Endianness : Big
Codec ID : A_AC3
Duration : 2h 19mn
Bit rate mode : Constant
Bit rate : 192 Kbps
Channel(s) : 2 channels
Channel positions : Front: L R
Sampling rate : 48.0 KHz
Compression mode : Lossy
Stream size : 192 MiB (2%)
Title : MVO (Студия Инис) (AC3 2.0 192 kbps)
Language : Russian
Default : No
Forced : No
Audio #3
ID : 4
Format : AC-3
Format/Info : Audio Coding 3
Mode extension : CM (complete main)
Format settings, Endianness : Big
Codec ID : A_AC3
Duration : 2h 19mn
Bit rate mode : Constant
Bit rate : 640 Kbps
Channel(s) : 6 channels
Channel positions : Front: L C R, Side: L R, LFE
Sampling rate : 48.0 KHz
Compression mode : Lossy
Stream size : 640 MiB (5%)
Title : AVO (Юрий Сербин) (AC3 5.1 640 kbps)
Language : Russian
Default : No
Forced : No
Audio #4
ID : 5
Format : AC-3
Format/Info : Audio Coding 3
Mode extension : CM (complete main)
Format settings, Endianness : Big
Codec ID : A_AC3
Duration : 2h 19mn
Bit rate mode : Constant
Bit rate : 640 Kbps
Channel(s) : 6 channels
Channel positions : Front: L C R, Side: L R, LFE
Sampling rate : 48.0 KHz
Compression mode : Lossy
Stream size : 640 MiB (5%)
Title : AVO (Юрий Живов) (AC3 5.1 640 kbps)
Language : Russian
Default : No
Forced : No
Audio #5
ID : 6
Format : AC-3
Format/Info : Audio Coding 3
Mode extension : CM (complete main)
Format settings, Endianness : Big
Codec ID : A_AC3
Duration : 2h 19mn
Bit rate mode : Constant
Bit rate : 640 Kbps
Channel(s) : 6 channels
Channel positions : Front: L C R, Side: L R, LFE
Sampling rate : 48.0 KHz
Compression mode : Lossy
Stream size : 640 MiB (5%)
Title : AC3 5.1 640 kbps
Language : English
Default : No
Forced : No
Audio #6
ID : 7
Format : AC-3
Format/Info : Audio Coding 3
Mode extension : CM (complete main)
Format settings, Endianness : Big
Codec ID : A_AC3
Duration : 2h 19mn
Bit rate mode : Constant
Bit rate : 224 Kbps
Channel(s) : 2 channels
Channel positions : Front: L R
Sampling rate : 48.0 KHz
Compression mode : Lossy
Stream size : 224 MiB (2%)
Title : Audio Commentary (AC3 2.0 224 kbps)
Language : English
Default : No
Forced : No
Text #1
ID : 8
Format : UTF-8
Codec ID : S_TEXT/UTF8
Codec ID/Info : UTF-8 Plain Text
Title : R5
Language : Russian
Default : No
Forced : No
Text #2
ID : 9
Format : UTF-8
Codec ID : S_TEXT/UTF8
Codec ID/Info : UTF-8 Plain Text
Title : Ю. Сербин
Language : Russian
Default : No
Forced : No
Text #3
ID : 10
Format : UTF-8
Codec ID : S_TEXT/UTF8
Codec ID/Info : UTF-8 Plain Text
Title : Notabenoid
Language : Russian
Default : No
Forced : No
Text #4
ID : 11
Format : UTF-8
Codec ID : S_TEXT/UTF8
Codec ID/Info : UTF-8 Plain Text
Title : Dunadan
Language : Russian
Default : No
Forced : No
Text #5
ID : 12
Format : UTF-8
Codec ID : S_TEXT/UTF8
Codec ID/Info : UTF-8 Plain Text
Title : Serg1004
Language : Russian
Default : No
Forced : No
Text #6
ID : 13
Format : UTF-8
Codec ID : S_TEXT/UTF8
Codec ID/Info : UTF-8 Plain Text
Title : full
Language : English
Default : No
Forced : No
Text #7
ID : 14
Format : UTF-8
Codec ID : S_TEXT/UTF8
Codec ID/Info : UTF-8 Plain Text
Title : SDH
Language : English
Default : No
Forced : No
Menu
00:00:00.000 : en:00:00:00.000
00:10:32.841 : en:00:10:32.841
00:16:46.714 : en:00:16:46.714
00:26:34.551 : en:00:26:34.551
00:39:08.972 : en:00:39:08.972
00:45:49.622 : en:00:45:49.622
00:51:28.919 : en:00:51:28.919
00:58:27.796 : en:00:58:27.796
01:06:02.458 : en:01:06:02.458
01:14:27.254 : en:01:14:27.254
01:22:32.906 : en:01:22:32.906
01:30:35.639 : en:01:30:35.639
01:40:46.040 : en:01:40:46.040
01:52:55.978 : en:01:52:55.978
02:00:21.089 : en:02:00:21.089
02:06:50.394 : en:02:06:50.394
[Профиль] [ЛС]
Кто просматривает тему:

Форум Тема Автор Размер
Фильмы (HD DVD, Blu-ray и BDRemux) 13-й воин / The 13th Warrior (1999) BDRemux 1080p | D, P, A BOSS 18.4 GB
Фильмы (HD Rips | 720p, 1080p) 13-й воин / The 13th Warrior (1999) BDRip 720p от Leonardo and Scarabey sergej644 4.3 GB
Фильмы (HD Rips | 720p, 1080p) Воин / Warrior (Гэвин О’Коннор / Gavin O\'Connor) [2011, США, боевик, драма, спорт, BDRemux 1080p] [AUS Transfer] MVO (R5) + AVO (Сербин) + Original (Eng) + Subs (Rus, Eng) bot 43.53 GB
Зарубежные сериалы Зена - Королева воинов / Ксена - принцесса-воин / Xena: Warrior Princess / Сезон: 1-6 из 6 / Серии: 1-134 из 134 (Гарт Максвелл / Garth Maxwell) [1996-2001, приключения, фэнтези, боевик, DVDRip] MVO... Russian Mafia 88.82 GB
Фильмы 2011 года Мирный воин / Peaceful Warrior (2006) BDRip Russian Mafia 2.19 GB
Фильмы 2011 года Мирный воин / Peaceful Warrior (Виктор Сальва / Victor Salva) [2006, Германия, США, драма, мелодрама, спорт, BDRip-AVC] MVO (ТВ3) + Original Eng + Sub Rus, Eng TorrentFilm 2.18 GB
Фильмы 2011 года Мирный воин / Peaceful Warrior (Виктор Сальва / Victor Salva) [2006, Германия, США, Драма, мелодрама, спорт, BDRip] MVO (ТВ3) TorrentFilm 1.46 GB
Фильмы 2011 года Мирный воин / Peaceful Warrior (Виктор Сальва / Victor Salva) [2006, Германия, США, драма, мелодрама, спорт, биография, BDRip-AVC] MVO (ТВ3) + Original Eng TorrentFilm 2.9 GB
Показать сообщения:    

Текущее время: Сегодня 12:15

Часовой пояс: GMT



Вы не можете начинать темы
Вы не можете отвечать на сообщения
Вы не можете редактировать свои сообщения
Вы не можете удалять свои сообщения
Вы не можете голосовать в опросах
Вы не можете прикреплять файлы к сообщениям
Вы не можете скачивать файлы