Первобытная ярость: Легенда О-Ма / Primal Rage: The Legend of Oh-Mah (2018) WEBRip 1080p | GreenРай Studio

 
Author Message

BOSS ®

Gender:

Longevity: 4 years 7 months

Posts: 14094

Location: ODESSA



: 22 ()

Mega Seeder 3 (1) Top Seeder 3 (1) Mega Releaser 3 (1)
Торрент-статистика

Post 10-Jun-2018 07:09

[Quote]

Информация о фильме
Год выхода: 2018
Наименование: Первобытная ярость
Оригинальное наименование: Primal Rage: The Legend of Oh-Mah
Произведено: США
Жанр: ужасы
Режиссер постановщик: Патрик Маджи
В главных ролях: Кейси Гальярди, Эндрю Джозеф Монтгомери, Элой Касадос, Джастин Рэйн, Маршал Хилтон, Скотт Филдс, Брэндон Гибсон, Мэтт Херольд, Блейк Джонсон, Джеки Нейман
О фильме: Встерив мужа после годовой отсидки, Эшли везёт его домой. Путь супругов пролегает через лесистую местность, о которой местные индейцы хранят легенды - якобы тут водится древнее лесное существо О-Ма. Начав спорить за рулем, Эшли отвлекается и сбивает мужчину. Пострадавший сильно покалечен, но его раны не очень напоминают следы от удара автомобиля. Пока женщина звонит в скорую, кто-то из леса начинает кидаться в парочку камнями.

Файл
Качество: WEBRip 1080p
Видео данные: MKV, 1920x810 (2.40:1), 23.976 fps, 4432 Кбит/с
Аудио данные: AAC, 2 ch, 192 Кбит/с
Перевод: Любительский многоголосый (GreenРай Studio)
Продолжительность: 01:46:19

Медиаинфо

General
Unique ID : 186838358581079025531259568926891089311 (0x8C8FC24AE26B2ED7EBD1AD07FB1E9D9F)
Complete name : D:ГРИНРАЙPrimal.Rage.2018.P.WEB-DL.1080p.mkv
Format : Matroska
Format version : Version 4 / Version 2
File size : 3.43 GiB
Duration : 1 h 46 min
Overall bit rate : 4 624 kb/s
Encoded date : UTC 2018-06-09 13:14:43
Writing application : mkvmerge v21.0.0 ('Tardigrades Will Inherit The Earth') 64-bit
Writing library : libebml v1.3.5 + libmatroska v1.4.8
Video
ID : 1
Format : AVC
Format/Info : Advanced Video Codec
Format profile : High@L4
Format settings : CABAC / 1 Ref Frames
Format settings, CABAC : Yes
Format settings, RefFrames : 1 frame
Format settings, GOP : M=1, N=30
Codec ID : V_MPEG4/ISO/AVC
Duration : 1 h 46 min
Bit rate : 4 432 kb/s
Width : 1 920 pixels
Height : 810 pixels
Display aspect ratio : 2.40:1
Frame rate mode : Constant
Frame rate : 23.976 (24000/1001) FPS
Color space : YUV
Chroma subsampling : 4:2:0
Bit depth : 8 bits
Scan type : Progressive
Bits/(Pixel*Frame) : 0.119
Stream size : 3.29 GiB (96%)
Language : English
Default : Yes
Forced : No
Audio
ID : 2
Format : AAC
Format/Info : Advanced Audio Codec
Format profile : LC
Codec ID : A_AAC-2
Duration : 1 h 46 min
Bit rate : 192 kb/s
Channel(s) : 2 channels
Channel positions : Front: L R
Sampling rate : 48.0 kHz
Frame rate : 46.875 FPS (1024 SPF)
Compression mode : Lossy
Stream size : 144 MiB (4%)
Language : English
Default : Yes
Forced : No
Внимание, имеется видео и аудио реклама от спонсора показа

Скриншоты

Релиз от:
[Profile] [PM]
Кто просматривает тему:

Forum Topic Author Size
Animal Planet Animal Planet: Беловежская пуща: первозданный лес / The Primeval Forest of Belovezhskaya Pushcha (Anton Verstakov) [2015 г., Документальный, путешествия, флора, фауна, HDTVRip 720p] skorpionN 1.64 GB
Viasat History Viasat History: BBC: Железные дороги в годы Первой мировой войны / Michael Portillo's Railways of the Great War [серии 1-5 из 5] (Tom Richardson) [2014 г., Документальный, история, HDTVRip 720p] skorpionN 3.72 GB
Классика зарубежного кино Ад первой любви / Hatsukoi: Jigoku-hen (1968) BDRip | L1 BOSS 1.46 GB
Научная и техническая литература Большая советская энциклопедия. Первое издание [01-65 томов из 65 + том СССР] (1926-1947) PDF достали все 12.16 GB
Детские отечественные фильмы Дневник мамы первоклассника (2014) WEBRip от ivandubskoj sergej644 700 MB
Фильмы (DVD 5/9) Дневник мамы первоклассника (Андрей Силкин) [2014, Россия, детский, мелодрама, семейный, DVD5] R5 Original Rus TorrentFilm 4.09 GB
Зарубежные Древние / Первородные / The Originals [02x01-09 из 22] (2014) WEB-DLRip | LostFilm Белочка 3.51 GB
Зарубежные сериалы Древние / Первородные / The Originals [S01] (2013) WEB-DL 720p | LostFilm Russian Mafia 29.78 GB
Display posts from previous:    

The time now is: Today 11:20

All times are GMT



You cannot post new topics in this forum
You cannot reply to topics in this forum
You cannot edit your posts in this forum
You cannot delete your posts in this forum
You cannot vote in polls in this forum
You cannot attach files in this forum
You cannot download files in this forum