Ана, любовь моя / Ana, mon amour (2017) WEBRip 1080p | GreenРай Studio

 
Автор Сообщение

BOSS ®

Пол:

Стаж: 3 года 8 месяцев

Сообщений: 10659

Откуда: ODESSA



Награды: 22 (Подробнее)

Top Seeder 2 (Количество: 1) Top Keeper 2 (Количество: 1) Mega Seeder 5 (Количество: 1)
Торрент-статистика

Создавать темы 10-Июн-2018 07:02

[Цитировать]

Информация о фильме
Год выхода: 2017
Наименование: Ана, любовь моя
Оригинальное наименование: Ana, mon amour
Произведено: Румыния, Германия, Франция
Жанр: драма, мелодрама
Режиссер постановщик: Калин Питер Нецер
В главных ролях: Диана Каваллиоти, Кармен Тэнасе, Василь Мурару, Адриан Титьени, Таня Попа, Клаудиу Истодор, Ионут Карас, Иоана Флора, Игорь Карас-Романов
О фильме: Тома и Ана похожи на идеальную пару, их отношения строятся на взаимном уважении и чувстве равенства. Ана росла не в самой благополучной семье - возможно, именно это является причиной внезапных приступов панических атак, которыми страдает девушка. Тома берёт на себя заботу о женщине и находит ей психолога. Слабость Аны даёт возможность Тома проявить свою силу и заботу. Ожидая ребенка, Ана решает пройти курс аналитического психоанализа, благодаря которому полностью избавляется от приступов и начинает ощущать себя гораздо более сильной и независимой личностью. К полной неожиданности для Тома, который только-только начал ощущать вкус к роли «настоящего мужчины».

Файл
Качество: WEBRip 1080p
Видео данные: MKV, 1920x800 (2.40:1), 23.976 fps, 4476 Кбит/с
Аудио данные: AAC, 2 ch, 192 Кбит/с
Перевод: Любительский многоголосый (GreenРай Studio)
Продолжительность: 02:07:06

Медиаинфо

General
Unique ID : 40311494423718538542518354834871277809 (0x1E53B61FB5E375C66EABC7F68013D8F1)
Complete name : D:ГРИНРАЙAna.mon.amour.2017.P.WEB-DL.1080p.mkv
Format : Matroska
Format version : Version 4 / Version 2
File size : 4.14 GiB
Duration : 2 h 7 min
Overall bit rate : 4 668 kb/s
Encoded date : UTC 2018-06-09 14:06:41
Writing application : mkvmerge v21.0.0 ('Tardigrades Will Inherit The Earth') 64-bit
Writing library : libebml v1.3.5 + libmatroska v1.4.8
Video
ID : 1
Format : AVC
Format/Info : Advanced Video Codec
Format profile : High@L4
Format settings : CABAC / 1 Ref Frames
Format settings, CABAC : Yes
Format settings, RefFrames : 1 frame
Format settings, GOP : M=1, N=30
Codec ID : V_MPEG4/ISO/AVC
Duration : 2 h 7 min
Bit rate : 4 476 kb/s
Width : 1 920 pixels
Height : 800 pixels
Display aspect ratio : 2.40:1
Frame rate mode : Constant
Frame rate : 23.976 (24000/1001) FPS
Color space : YUV
Chroma subsampling : 4:2:0
Bit depth : 8 bits
Scan type : Progressive
Bits/(Pixel*Frame) : 0.122
Stream size : 3.97 GiB (96%)
Language : English
Default : Yes
Forced : No
Audio
ID : 2
Format : AAC
Format/Info : Advanced Audio Codec
Format profile : LC
Codec ID : A_AAC-2
Duration : 2 h 7 min
Bit rate : 192 kb/s
Channel(s) : 2 channels
Channel positions : Front: L R
Sampling rate : 48.0 kHz
Frame rate : 46.875 FPS (1024 SPF)
Compression mode : Lossy
Stream size : 172 MiB (4%)
Language : English
Default : Yes
Forced : No
Внимание, имеется видео и аудио реклама от спонсора показа

Скриншоты

Релиз от:
[Профиль] [ЛС]
Показать сообщения:    

Текущее время: Сегодня 03:32

Часовой пояс: GMT



Вы не можете начинать темы
Вы не можете отвечать на сообщения
Вы не можете редактировать свои сообщения
Вы не можете удалять свои сообщения
Вы не можете голосовать в опросах
Вы не можете прикреплять файлы к сообщениям
Вы не можете скачивать файлы